<?xml version="1.0" standalone="no"?>
<!DOCTYPE svg PUBLIC "-//W3C//DTD SVG 1.1//EN" "http://www.w3.org/Graphics/SVG/1.1/DTD/svg11.dtd" >
<svg xmlns="http://www.w3.org/2000/svg">
<metadata>Generated by IcoMoon</metadata>
<defs>
<font id="icomoon" horiz-adv-x="1024">
<font-face units-per-em="1024" ascent="960" descent="-64" />
<missing-glyph horiz-adv-x="1024" />
<glyph unicode="&#x20;" horiz-adv-x="512" d="" />
<glyph unicode="&#xe900;" glyph-name="Refresh" d="M687.985 193.736c-59.395-42.417-132.168-61.839-204.8-54.656-3.392 0.32-6.72 0.896-10.176 1.344-6.528 0.896-13.056 1.728-19.392 3.008-3.907 0.791-7.79 1.687-11.648 2.688-6.221 1.375-12.39 2.975-18.496 4.8-2.88 0.896-5.76 1.92-8.704 2.944-8.568 2.857-17.004 6.103-25.28 9.728-7.951 3.469-15.747 7.291-23.36 11.456l-1.024 0.512c-34.117 19.005-64.358 44.255-89.151 74.432-1.216 1.472-2.368 3.136-3.584 4.672-43.613 55.050-67.32 123.238-67.264 193.472h71.168c1.909-0.003 3.661 1.057 4.544 2.752 0.917 1.656 0.817 3.689-0.256 5.248l-119.488 181.631c-2.012 3.162-6.628 3.162-8.64 0l-119.552-181.631c-1.024-1.472-1.216-3.52-0.256-5.248s2.688-2.752 4.544-2.752h71.168c0-86.016 26.496-165.696 71.424-231.552 0.576-0.96 0.96-1.92 1.536-2.816 4.672-6.72 9.856-12.992 14.848-19.392 1.856-2.368 3.648-4.864 5.568-7.232 7.36-9.088 15.168-17.472 23.232-25.856l2.24-2.304c35.204-35.756 76.853-64.527 122.751-84.8l7.424-3.328c8.512-3.584 17.344-6.72 26.112-9.728 4.16-1.408 8.256-2.88 12.48-4.16 7.744-2.304 15.616-4.224 23.552-6.144 5.312-1.28 10.496-2.624 15.936-3.648 2.176-0.512 4.288-1.152 6.528-1.472 7.488-1.344 14.976-2.112 22.528-3.008l8.064-1.152c96.11-9.797 192.494 15.78 271.104 71.936 21.911 15.69 27.205 46.042 11.904 68.224-15.183 22.228-45.66 27.656-67.584 12.032zM915.761 448.136c0.067 82.409-24.714 162.926-71.104 231.039-0.704 1.152-1.152 2.304-1.792 3.264-5.624 7.877-11.517 15.561-17.664 23.040l-2.112 2.752c-40.315 49.721-91.983 89.031-150.656 114.624-1.61 0.72-3.213 1.467-4.8 2.24-9.341 3.803-18.798 7.325-28.352 10.56-3.648 1.152-7.040 2.432-10.624 3.456-8.369 2.511-16.822 4.731-25.344 6.656-4.672 1.088-9.408 2.304-14.208 3.264-2.368 0.448-4.544 1.152-6.912 1.6-6.4 1.152-12.8 1.6-19.2 2.432-4.352 0.576-8.768 1.28-13.184 1.728-10.642 0.946-21.317 1.48-32 1.6-1.92 0-3.84 0.32-5.824 0.32-82.988 0.141-163.937-25.708-231.487-73.92-21.97-15.674-27.299-46.077-11.968-68.288 15.225-22.174 45.67-27.566 67.583-11.968 59.525 42.401 132.39 61.817 205.12 54.656l8.128-1.152c7.36-0.832 14.592-1.92 21.696-3.328 3.136-0.576 6.272-1.408 9.344-2.112 6.976-1.6 14.016-3.328 20.8-5.376l6.4-2.24c7.808-2.56 15.424-5.312 22.976-8.512l2.368-1.088c45.12-19.648 84.736-49.92 115.648-87.808l0.576-0.768c45.199-55.595 69.816-125.086 69.696-196.735h-71.104c-1.905 0.020-3.666-1.021-4.567-2.701-0.901-1.682-0.794-3.722 0.279-5.299l119.616-181.568c2.020-3.098 6.556-3.098 8.576 0l119.488 181.568c3.845 0.041 6.275 4.147 4.46 7.539-1.818 3.389-6.584 3.64-8.748 0.461l-71.104 0.064z" />
<glyph unicode="&#xe901;" glyph-name="icon-language" d="M514.56 640l56.32-151.040h-110.080l53.76 151.040zM512 960c-281.6 0-512-230.4-512-512s230.4-512 512-512 512 230.4 512 512-230.4 512-512 512zM348.16 389.12c0 5.12 5.12 12.8 7.68 23.040l94.72 238.080c2.56 7.68 5.12 15.36 10.24 25.6 2.56 10.24 7.68 17.92 12.8 23.040s10.24 10.24 17.92 15.36c7.68 5.12 15.36 5.12 25.6 5.12s17.92 0 25.6-5.12c7.68-2.56 12.8-7.68 17.92-15.36 5.12-5.12 7.68-12.8 10.24-20.48s7.68-15.36 10.24-28.16l94.72-235.52c7.68-17.92 10.24-30.72 10.24-38.4s-2.56-15.36-10.24-23.040c-7.68-7.68-15.36-10.24-25.6-10.24s-10.24 0-15.36 2.56c-5.12 0-7.68 5.12-10.24 7.68s-5.12 10.24-10.24 15.36c-2.56 7.68-5.12 15.36-7.68 20.48l-17.92 46.080h-148.48l-17.92-46.080c-7.68-17.92-12.8-30.72-17.92-38.4-5.12-5.12-12.8-10.24-23.040-10.24s-17.92 2.56-25.6 10.24-10.24 15.36-10.24 23.040v15.36zM678.4 217.6h-332.8c-20.48 0-38.4 17.92-38.4 38.4s17.92 38.4 38.4 38.4h332.8c20.48 0 38.4-17.92 38.4-38.4s-17.92-38.4-38.4-38.4z" />
<glyph unicode="&#xe902;" glyph-name="minimize" d="M364.879 652.804h294.217q57.702 0 57.702-57.702v-294.217q0-57.676-57.702-57.676h-294.217q-57.676 0-57.676 57.676v294.217q0 57.702 57.676 57.702zM297.219 745.449v173.694c-0.015 22.568-18.313 40.857-40.883 40.857-0.027 0-0.054 0-0.081 0h0.004c-0.008 0-0.017 0-0.026 0-22.607 0-40.934-18.327-40.934-40.934 0-0.009 0-0.018 0-0.027v0.001-173.591h-174.078c-0.030 0-0.066 0-0.102 0-22.706 0-41.113-18.407-41.113-41.113 0-0.027 0-0.054 0-0.081v0.004c0-22.763 18.453-41.215 41.215-41.215v0h173.566c45.525 0 82.431 36.906 82.431 82.431v0zM1023.994 704.003c0 22.758-18.432 41.215-41.215 41.215h-173.566v173.566c0 22.763-18.453 41.215-41.215 41.215s-41.215-18.453-41.215-41.215v0-173.566c0-0.008 0-0.017 0-0.026 0-45.511 36.894-82.405 82.405-82.405 0.009 0 0.018 0 0.027 0h173.564c22.784 0 41.215 18.432 41.215 41.215zM1023.994 191.753c0 22.784-18.432 41.215-41.215 41.215h-173.566c-0.008 0-0.017 0-0.026 0-45.511 0-82.405-36.894-82.405-82.405 0-0.009 0-0.018 0-0.027v0.001-173.566c0-22.621 18.338-40.959 40.959-40.959s40.96 18.338 40.96 40.96v0 173.566h174.078c22.784 0 41.215 18.457 41.215 41.215zM297.219 150.794c0 0.008 0 0.017 0 0.026 0 45.511-36.894 82.405-82.405 82.405-0.009 0-0.018 0-0.027 0h-173.564c-22.763 0-41.215-18.453-41.215-41.215s18.453-41.215 41.215-41.215v0h173.566v-173.566c0-22.763 18.453-41.215 41.215-41.215s41.215 18.453 41.215 41.215v0 173.566z" />
<glyph unicode="&#xe903;" glyph-name="bg-fullscreen" d="M983.040 232.96c-22.622 0-40.96-18.338-40.96-40.96v0-173.594h-174.080c-22.317-0.574-40.189-18.801-40.189-41.203s17.872-40.629 40.136-41.202l0.053-0.001h173.594c45.512 0 82.406 36.895 82.406 82.406v0 173.594c0 22.622-18.338 40.96-40.96 40.96v0zM941.594 960h-173.594c-22.317-0.574-40.189-18.801-40.189-41.203s17.872-40.629 40.136-41.202l0.053-0.001h173.594v-173.594c0.574-22.317 18.801-40.189 41.203-40.189s40.629 17.872 41.202 40.136l0.001 0.053v173.568c0 0.008 0 0.017 0 0.026 0 45.512-36.895 82.406-82.406 82.406v0zM256 18.406h-173.568l-0.051 173.594c-0.805 22.129-18.938 39.764-41.19 39.764s-40.386-17.634-41.188-39.69l-0.002-0.073v-173.594c0-45.512 36.895-82.406 82.406-82.406h173.594c22.317 0.574 40.189 18.801 40.189 41.203s-17.872 40.629-40.136 41.202l-0.053 0.001zM40.96 663.040c22.622 0 40.96 18.338 40.96 40.96v0 173.568l174.080 0.026c22.317 0.574 40.189 18.801 40.189 41.203s-17.872 40.629-40.136 41.202l-0.053 0.001h-173.568c-45.517 0-82.417-36.891-82.432-82.405v-173.595c0-22.622 18.338-40.96 40.96-40.96v0zM301.824 740.582h420.301q82.432 0 82.432-82.432v-420.301q0-82.432-82.432-82.432h-420.301q-82.406 0-82.406 82.432v420.326q0 82.406 82.432 82.406z" />
<glyph unicode="&#xe904;" glyph-name="Baixe" d="M512 45.235l0.051 36.582-0.077-0.051 0.026-36.531zM768 960h-512c-40.388-0.015-73.125-32.751-73.139-73.138v-877.723c0.015-40.388 32.751-73.125 73.138-73.139h512.001c40.388 0.015 73.125 32.751 73.139 73.138v877.723c-0.015 40.388-32.751 73.125-73.138 73.139h-0.001zM512 8.678c-40.376 0.044-73.096 32.763-73.139 73.135v0.004c0.044 40.376 32.763 73.096 73.135 73.139h0.004c40.376-0.044 73.096-32.763 73.139-73.135v-0.004c-0.044-40.376-32.763-73.096-73.135-73.139h-0.004zM731.443 228.582h-438.861v621.696h438.861v-621.67z" />
<glyph unicode="&#xe905;" glyph-name="Ranking" d="M912.689 804.557h-63.642c0 66.099-16.742 104.243-76.698 104.243h-526.438c-71.168 0-77.158-46.541-77.158-107.571h-55.45c-80.077 0-124.16-79.616-110.592-162.662 14.848-90.522 44.902-212.685 197.99-260.301 40.090-90.982 114.995-160.512 206.746-191.795 20.275-6.707 34.099-14.746 34.099-37.427 0-27.392-20.787-25.651-46.387-25.651h-18.125c-48.384-0.768-86.938-42.086-86.118-92.16-0.307-23.962 18.176-43.674 41.318-44.032h353.792c23.245 0.41 41.728 20.173 41.37 44.134 0.819 50.125-37.786 91.392-86.118 92.16h-18.125c-25.6 0-46.387-1.741-46.387 25.651 0 22.682 13.824 30.72 34.099 37.478 92.774 31.59 168.346 102.298 208.077 194.714 157.645 45.568 188.058 169.728 202.957 261.274 13.466 82.688-30.208 161.946-109.261 161.946zM78.692 653.466c-7.782 30.72 14.899 60.621 45.568 60.109h43.008v-178.176c0-19.507 1.536-39.014 4.454-58.368-54.455 40.839-90.112 104.188-93.067 175.975l-0.015 0.46zM663.754 585.882l-41.37-42.701c-6.399-6.718-10.335-15.831-10.335-25.864 0-2.167 0.184-4.291 0.536-6.358l-0.031 0.222 9.728-60.262c0.346-1.751 0.543-3.764 0.543-5.824 0-10.008-4.669-18.925-11.947-24.692l-0.065-0.050c-4.855-3.784-11.041-6.066-17.76-6.066-5.068 0-9.834 1.299-13.981 3.582l0.15-0.076-51.2 28.416c-4.567 2.617-10.039 4.16-15.872 4.16s-11.305-1.543-16.031-4.244l0.159 0.084-51.2-28.467c-3.963-2.167-8.681-3.441-13.697-3.441-6.735 0-12.933 2.298-17.854 6.152l0.063-0.048c-7.393 5.807-12.098 14.746-12.098 24.785 0 2.026 0.192 4.008 0.558 5.927l-0.031-0.197 9.933 60.314c0.324 1.85 0.508 3.98 0.508 6.153 0 10.028-3.938 19.136-10.353 25.862l0.014-0.015-41.37 42.701c-5.586 5.821-9.026 13.74-9.026 22.462 0 3.423 0.53 6.722 1.512 9.819l-0.063-0.23c3.374 11.1 12.529 19.435 23.872 21.576l0.192 0.030 56.934 8.704c11.545 1.943 20.999 9.416 25.665 19.55l0.088 0.213 25.549 54.835c4.629 10.344 14.783 17.445 26.609 17.561h0.015c11.418 0 21.811-6.861 26.624-17.562l25.6-54.784c4.733-10.356 14.168-17.845 25.499-19.786l0.204-0.029 57.19-8.806c11.264-1.946 20.582-10.24 24.064-21.555 0.924-2.872 1.456-6.176 1.456-9.605 0-8.693-3.423-16.587-8.994-22.407l0.011 0.012zM946.788 657.51q-1.126-120.32-100.352-181.248c2.835 17.704 4.454 38.114 4.454 58.903 0 0.064 0 0.128 0 0.192v-0.010 182.016h50.79c30.464 0.512 52.941-29.338 45.056-59.904z" />
<glyph unicode="&#xe906;" glyph-name="quit" horiz-adv-x="1048" d="M463.214 960c34.167 0 63.3-29.133 63.3-63.3 0-0.031 0-0.068 0-0.105 0-34.829-28.235-63.064-63.064-63.064-0.083 0-0.166 0-0.249 0h-338.357v-771.061h338.37c34.167 0 63.3-29.028 63.3-63.195 0-34.246-29.133-63.274-63.3-63.274h-399.913c-34.829 0.526-62.908 28.688-63.3 63.499v897.2c0 0.055 0 0.119 0 0.184 0 34.858 28.258 63.117 63.117 63.117 0.065 0 0.129 0 0.194 0h399.903zM604.944 782.24c0 53.047 63.3 78.561 99.093 41.038l328.248-335.119c22.131-22.158 22.131-58.056 0-82.075l-328.144-333.126c-35.767-35.898-99.067-10.253-99.067 41.038v78.666c0.001 0.141 0.002 0.307 0.002 0.474 0 31.803-25.781 57.584-57.584 57.584-0.167 0-0.333-0.001-0.499-0.002h-268.411c-0.141-0.001-0.307-0.002-0.474-0.002-31.803 0-57.584 25.781-57.584 57.584 0 0.167 0.001 0.333 0.002 0.499v-0.025 278.584c0 32.411 25.645 58.030 58.056 58.030h268.436c0.125-0.001 0.274-0.002 0.422-0.002 31.832 0 57.636 25.805 57.636 57.636 0 0.194-0.001 0.388-0.003 0.582v-0.030l-0.131 78.666z" />
<glyph unicode="&#xe907;" glyph-name="password-yc" horiz-adv-x="1271" d="M635.63 960c113.142 0 220.246-30.828 314.001-83.903l-192.278-167.171c-36.867 17.162-78.182 27.014-122.041 27.014-158.908 0-287.94-129.033-287.94-287.94 0-29.557 4.449-57.842 12.713-84.539l-218.021-189.418c-60.385 71.191-107.104 154.14-136.978 242.811-6.992 20.34-7.31 42.269-1.589 63.245 76.911 264.74 334.024 479.901 632.134 479.901zM1267.128 480.735c-31.146 107.421-91.849 206.58-173.209 286.669l85.81 74.687c13.348 11.441 14.619 31.782 3.178 45.13l-42.269 48.626c-11.441 13.348-31.782 14.619-45.13 3.178l-999.846-869.542c-13.348-11.441-14.619-31.782-3.178-45.13l42.269-48.626c11.441-13.348 31.782-14.619 45.13-3.178l93.438 81.043c103.29-73.097 227.238-117.592 362.627-117.592 297.475 0 539.332 228.191 629.274 479.265 7.628 20.976 8.581 43.858 2.225 65.152zM635.63 160.060c-65.152 0-125.219 21.611-173.527 58.16l100.43 87.399c21.929-11.124 46.719-17.48 72.78-17.48 88.353 0 159.861 71.508 159.861 159.861 0 18.433-3.178 35.913-8.899 52.439l100.43 87.399c23.2-41.316 36.231-88.988 36.231-139.839 0-158.908-129.033-287.94-287.94-287.94zM635.63 608.179c1.907 0 3.814 0 5.721 0l-164.628-143.335c8.263 80.407 76.276 143.335 159.225 143.335z" />
<glyph unicode="&#xe908;" glyph-name="a-MyGameBets" d="M512 960c-282.88 0-512-229.12-512-512s229.12-512 512-512 512 229.12 512 512-229.12 512-512 512zM389.888 215.296l-122.368 145.664c-14.080 16.64-2.048 41.984 19.712 41.984h46.848c-0.768 6.4-1.28 12.8-1.28 19.2v153.6c0 84.736 68.864 153.6 153.6 153.6 22.784 0 44.544-4.864 64-13.824-52.992-24.32-89.6-77.568-89.6-139.776v-172.8h71.168c21.76 0 33.536-25.344 19.712-41.984l-122.368-145.664c-10.24-12.288-28.928-12.288-39.168 0zM783.872 529.92c-4.352-6.912-12.032-11.52-21.504-11.52h-46.848c0.768-6.4 1.28-12.8 1.28-19.2v-153.6c0-84.736-68.864-153.6-153.6-153.6-22.784 0-44.544 4.864-64 13.824 52.992 24.32 89.6 77.568 89.6 139.776v172.8h-71.168c-10.752 0-19.2 6.144-23.040 14.592-2.048 4.096-2.816 8.96-2.304 13.568 0.512 4.864 2.304 9.728 5.888 13.824l122.368 145.664c10.24 12.288 28.928 12.288 39.168 0l122.368-145.664c7.936-9.472 7.68-21.76 1.792-30.464z" />
<glyph unicode="&#xe909;" glyph-name="Freebet" d="M512 960c-282.88 0-512-229.12-512-512s229.12-512 512-512 512 229.12 512 512-229.12 512-512 512zM409.6 844.544c33.536 8.704 67.84 13.056 102.4 13.056s68.864-4.352 102.4-13.056v-106.752c-32 11.264-66.56 17.408-102.4 17.408s-70.4-6.144-102.4-17.408v107.008zM219.648 161.024c-48.64 49.408-83.712 110.592-102.4 177.408l92.672 53.504c13.056-70.4 50.176-132.608 102.4-177.408l-92.672-53.504zM209.92 504.064l-92.672 53.504c18.688 66.816 53.76 127.744 102.4 177.408l92.672-53.504c-52.224-44.8-89.344-106.752-102.4-177.408zM614.4 51.456c-33.536-8.704-67.84-13.056-102.4-13.056s-68.864 4.352-102.4 13.056v107.008c32-11.264 66.56-17.408 102.4-17.408s70.4 6.144 102.4 17.408v-106.752zM635.904 359.424c-4.096-9.984-9.984-18.688-17.408-26.112-7.424-7.168-16.128-13.056-26.112-17.408-9.728-4.096-20.224-6.4-31.488-6.4h-5.632v-92.16h-55.296v92.16h-89.088v65.024h150.016c4.096 0 7.936 1.536 11.008 4.864s4.864 7.424 4.864 12.032-1.536 7.424-4.864 8.704c-3.072 1.28-6.912 2.048-11.008 2.048h-68.352c-11.52 0-22.016 2.048-32 6.4-9.728 4.352-18.432 10.24-25.856 17.664-7.168 7.68-13.056 16.384-17.408 26.368-4.096 9.984-6.4 20.736-6.4 32s2.048 21.76 6.4 31.488c4.352 9.984 10.24 18.688 17.408 26.112 7.424 7.424 15.872 13.312 25.856 17.408 9.984 4.352 20.736 6.656 32 6.656h7.424v81.408h55.296v-81.408h70.144v-65.792h-132.864c-4.608 0-8.448-1.536-11.776-4.864-3.072-3.072-4.864-6.656-4.864-11.008s1.536-8.448 4.864-11.776 7.168-4.864 11.776-4.864h68.352c11.264 0 21.76-1.792 31.488-5.632 9.984-3.84 18.688-9.216 26.112-15.872 7.424-6.912 13.312-14.848 17.408-24.32 4.352-9.472 6.656-19.712 6.656-30.976s-2.304-22.016-6.656-32zM804.096 734.976c48.64-49.408 83.712-110.592 102.4-177.408l-92.416-53.504c-13.056 70.4-50.176 132.608-102.4 177.408l92.672 53.504zM804.096 161.024l-92.672 53.504c52.224 44.8 89.344 106.752 102.4 177.408l92.416-53.504c-18.688-66.816-53.76-127.744-102.4-177.408z" />
<glyph unicode="&#xe90a;" glyph-name="a-BGgames" d="M953.856 960h-530.176c-37.376 0-66.56-32-65.024-71.424v-158.976s328.448 0 328.448 0c43.008 0 79.36-36.864 81.152-82.176v-378.624s190.72 0 190.72 0c37.376 0 66.56 32 65.024 71.424v548.352c-1.536 39.424-32.768 71.424-70.144 71.424zM885.248 734.208c-13.824-15.104-33.28-24.576-55.040-24.576-43.52 0-80.384 37.376-81.92 83.456s32.256 83.456 76.032 83.456 80.384-37.376 81.92-83.456c0.768-23.040-7.168-44.032-20.992-59.136zM641.28 678.4h-571.136c-40.192 0-71.68-34.304-70.144-76.8v-588.8c1.536-42.496 35.328-76.8 75.52-76.8h570.88c40.192 0 71.68 34.304 70.144 76.8v588.8c-1.536 42.496-35.328 76.8-75.52 76.8zM501.76 589.056c46.848 0 86.528-40.192 88.32-89.6s-34.816-89.6-81.92-89.6c-46.848 0-86.528 40.192-88.32 89.6s34.816 89.6 81.92 89.6zM173.824 589.056c46.848 0 86.528-40.192 88.32-89.6s-34.816-89.6-81.92-89.6c-46.848 0-86.528 40.192-88.32 89.6s34.816 89.6 81.92 89.6zM193.536 38.4c-46.848 0-86.528 40.192-88.32 89.6s34.816 89.6 81.92 89.6 86.528-40.192 88.32-89.6c1.792-49.408-34.816-89.6-81.92-89.6zM357.12 217.6c-46.848 0-86.528 40.192-88.32 89.6s34.816 89.6 81.92 89.6c46.848 0 86.528-40.192 88.32-89.6s-34.816-89.6-81.92-89.6zM521.472 38.4c-46.848 0-86.528 40.192-88.32 89.6s34.816 89.6 81.92 89.6c46.848 0 86.528-40.192 88.32-89.6s-34.816-89.6-81.92-89.6z" />
<glyph unicode="&#xe90b;" glyph-name="Bingo" d="M256 755.2c0-28.277-22.923-51.2-51.2-51.2s-51.2 22.923-51.2 51.2c0 28.277 22.923 51.2 51.2 51.2s51.2-22.923 51.2-51.2zM563.2 448c0-28.277-22.923-51.2-51.2-51.2s-51.2 22.923-51.2 51.2c0 28.277 22.923 51.2 51.2 51.2s51.2-22.923 51.2-51.2zM921.6 960h-819.2c-56.576 0-102.4-45.824-102.4-102.4v-819.2c0-56.576 45.824-102.4 102.4-102.4h819.2c56.576 0 102.4 45.824 102.4 102.4v819.2c0 56.576-45.824 102.4-102.4 102.4zM307.2 48.64c0-5.632-4.608-10.24-10.24-10.24h-184.32c-5.632 0-10.24 4.608-10.24 10.24v184.32c0 5.632 4.608 10.24 10.24 10.24h184.32c5.632 0 10.24-4.608 10.24-10.24v-184.32zM307.2 355.84c0-5.632-4.608-10.24-10.24-10.24h-184.32c-5.632 0-10.24 4.608-10.24 10.24v184.32c0 5.632 4.608 10.24 10.24 10.24h184.32c5.632 0 10.24-4.608 10.24-10.24v-184.32zM307.2 663.040c0-5.632-4.608-10.24-10.24-10.24h-184.32c-5.632 0-10.24 4.608-10.24 10.24v184.32c0 5.632 4.608 10.24 10.24 10.24h184.32c5.632 0 10.24-4.608 10.24-10.24v-184.32zM614.4 48.64c0-5.632-4.608-10.24-10.24-10.24h-184.32c-5.632 0-10.24 4.608-10.24 10.24v184.32c0 5.632 4.608 10.24 10.24 10.24h184.32c5.632 0 10.24-4.608 10.24-10.24v-184.32zM614.4 355.84c0-5.632-4.608-10.24-10.24-10.24h-184.32c-5.632 0-10.24 4.608-10.24 10.24v184.32c0 5.632 4.608 10.24 10.24 10.24h184.32c5.632 0 10.24-4.608 10.24-10.24v-184.32zM614.4 663.040c0-5.632-4.608-10.24-10.24-10.24h-184.32c-5.632 0-10.24 4.608-10.24 10.24v184.32c0 5.632 4.608 10.24 10.24 10.24h184.32c5.632 0 10.24-4.608 10.24-10.24v-184.32zM921.6 48.64c0-5.632-4.608-10.24-10.24-10.24h-184.32c-5.632 0-10.24 4.608-10.24 10.24v184.32c0 5.632 4.608 10.24 10.24 10.24h184.32c5.632 0 10.24-4.608 10.24-10.24v-184.32zM921.6 355.84c0-5.632-4.608-10.24-10.24-10.24h-184.32c-5.632 0-10.24 4.608-10.24 10.24v184.32c0 5.632 4.608 10.24 10.24 10.24h184.32c5.632 0 10.24-4.608 10.24-10.24v-184.32zM921.6 663.040c0-5.632-4.608-10.24-10.24-10.24h-184.32c-5.632 0-10.24 4.608-10.24 10.24v184.32c0 5.632 4.608 10.24 10.24 10.24h184.32c5.632 0 10.24-4.608 10.24-10.24v-184.32zM870.4 140.8c0-28.277-22.923-51.2-51.2-51.2s-51.2 22.923-51.2 51.2c0 28.277 22.923 51.2 51.2 51.2s51.2-22.923 51.2-51.2z" />
<glyph unicode="&#xe90c;" glyph-name="Bonus" horiz-adv-x="886" d="M449.257 934.4c219.594 0 398.103-177.473 398.103-398.221s-178.509-398.221-398.103-398.221-398.105 177.472-398.105 398.221c0 220.748 178.511 398.221 398.105 398.221zM610.65 348.982l-39.124 121.556c-2.445 9.725 2.445 19.448 9.782 26.742l90.478 75.366c9.782 4.861 12.227 17.019 9.782 26.742-2.447 9.725-12.227 17.019-22.008 17.019h-129.605c-9.782 0-19.564 7.293-22.008 17.019l-39.124 121.556c-2.447 9.724-12.227 17.018-22.008 17.018s-19.564-7.293-22.008-17.018l-39.127-121.556c-2.445-9.725-12.227-17.019-22.008-17.019h-129.604c-9.781 0-19.563-7.293-22.008-17.019-2.445-9.723 2.445-19.448 9.782-26.742l105.15-75.366c9.782-4.861 12.227-17.016 9.782-26.742l-39.127-121.556c-2.445-9.725 2.447-19.448 9.782-26.742 9.782-7.293 22.008-7.293 29.345 0l102.705 75.364c9.782 7.293 22.008 7.293 29.345 0l102.705-75.364c9.782-7.293 22.008-7.293 29.343 0 9.782 4.861 12.229 17.016 9.782 26.742zM27.157 89.807l83.631 144.896c55.754-62.236 127.648-108.915 209.811-133.225l-75.805-133.228c-4.891-9.725-19.563-7.293-22.008 2.432l-26.899 114.263c0 7.293-7.336 9.725-14.672 9.725l-141.831-24.312c-9.781 0-17.118 9.725-12.227 17.019v2.429zM780.321 227.436l88.522-140.518c4.89-9.725-2.445-19.451-12.227-17.019h0.978l-141.832 24.312c-7.334 0-12.227-2.432-14.671-9.725l-26.9-114.263c-2.445-9.725-17.116-12.155-22.006-2.432l-82.166 131.282c81.674 22.853 154.058 67.587 210.301 128.364z" />
<glyph unicode="&#xe90d;" glyph-name="Copy" d="M102.4 620.8v-499.2q0-8.154 1.664-16.223 1.497-8.072 4.659-15.642 3.161-7.488 7.737-14.395 4.493-6.738 10.317-12.562t12.563-10.317q6.823-4.577 14.394-7.739t15.641-4.741q8.072-1.582 16.225-1.582h499.2q8.154 0 16.223 1.667 8.072 1.495 15.642 4.657 7.488 3.162 14.395 7.739 6.738 4.493 12.562 10.317t10.319 12.562q4.575 6.822 7.736 14.395 3.162 7.57 4.741 15.639 1.582 8.072 1.582 16.225v499.2q0 8.154-1.664 16.224-1.498 8.070-4.659 15.641-3.162 7.488-7.739 14.394-4.493 6.74-10.317 12.564t-12.562 10.317q-6.822 4.575-14.395 7.737-7.57 3.162-15.639 4.742-8.072 1.581-16.225 1.581h-499.2q-8.154 0-16.224-1.664-8.071-1.498-15.642-4.659-7.488-3.162-14.394-7.738-6.738-4.493-12.563-10.317t-10.317-12.562q-4.576-6.823-7.737-14.394-3.162-7.571-4.743-15.641t-1.58-16.224zM254.989 582.944q-3.079 0-6.157-0.582-2.995-0.582-5.824-1.831-2.912-1.164-5.574-2.912-2.497-1.663-4.743-3.909-2.245-2.164-3.91-4.743-1.747-2.662-2.912-5.491-1.248-2.912-1.831-5.907-0.581-3.078-0.581-6.156 0-3.162 0.582-6.24 0.582-2.995 1.83-5.824 1.165-2.912 2.912-5.574 1.664-2.497 3.91-4.743 2.163-2.247 4.743-3.911 2.662-1.747 5.491-2.912 2.912-1.248 5.907-1.83 3.078-0.582 6.157-0.582h360.422q3.077 0 6.157 0.582 2.995 0.582 5.906 1.831 2.913 1.164 5.491 2.912 2.496 1.663 4.744 3.91 2.245 2.163 3.912 4.743 1.746 2.662 2.995 5.491 1.162 2.912 1.746 5.907 0.666 3.078 0.666 6.24 0 3.078-0.666 6.156-0.584 2.995-1.746 5.824-1.249 2.912-2.995 5.574-1.667 2.497-3.912 4.743-2.163 2.246-4.744 3.911-2.578 1.747-5.491 2.912-2.911 1.248-5.906 1.83-3.080 0.582-6.157 0.582h-360.422zM254.989 402.816q-3.079 0-6.157-0.584-2.995-0.666-5.824-1.83-2.912-1.165-5.574-2.911-2.497-1.664-4.743-3.909-2.245-2.248-3.91-4.828-1.747-2.578-2.912-5.489-1.248-2.829-1.831-5.824-0.581-3.164-0.581-6.241t0.582-6.157 1.83-5.908q1.165-2.911 2.912-5.489 1.664-2.58 3.91-4.826 2.163-2.163 4.743-3.912 2.662-1.664 5.491-2.911 2.912-1.165 5.907-1.833 3.078-0.581 6.157-0.581h360.422q3.077 0 6.157 0.584 2.995 0.666 5.906 1.83 2.913 1.165 5.491 2.911 2.496 1.664 4.744 3.912 2.245 2.245 3.912 4.826 1.746 2.578 2.995 5.489 1.162 2.829 1.746 5.824 0.666 3.164 0.666 6.241t-0.666 6.157q-0.584 3.080-1.746 5.908-1.249 2.911-2.995 5.489-1.667 2.58-3.912 4.828-2.163 2.161-4.744 3.909-2.578 1.664-5.491 2.911-2.911 1.165-5.906 1.833-3.080 0.581-6.157 0.581h-360.422zM254.989 222.605q-3.079 0-6.157-0.581-2.995-0.584-5.824-1.833-2.912-1.162-5.574-2.911-2.497-1.664-4.743-3.909-2.245-2.166-3.91-4.744-1.747-2.662-2.912-5.491-1.248-2.911-1.831-5.908-0.581-3.077-0.581-6.239 0-3.080 0.582-6.157 0.582-2.995 1.83-5.824 1.165-2.911 2.912-5.573 1.664-2.496 3.91-4.744 2.163-2.245 4.743-3.909 2.662-1.748 5.491-2.913 2.912-1.247 5.907-1.83 3.078-0.581 6.157-0.581h360.422q3.077 0 6.157 0.581 2.995 0.584 5.906 1.83 2.913 1.165 5.491 2.913 2.496 1.664 4.744 3.909 2.245 2.163 3.912 4.744 1.746 2.662 2.995 5.491 1.162 2.911 1.746 5.906 0.666 3.077 0.666 6.157 0 3.164-0.666 6.239-0.584 2.998-1.746 5.824-1.249 2.913-2.995 5.576-1.667 2.496-3.912 4.744-2.163 2.245-4.744 3.909-2.578 1.748-5.491 2.913-2.911 1.247-5.906 1.83-3.080 0.581-6.157 0.581h-360.422zM256 774.399h499.2q8.154 0 16.223-1.663 8.072-1.498 15.642-4.659 7.488-3.162 14.395-7.738 6.74-4.493 12.564-10.317t10.317-12.562q4.575-6.823 7.736-14.394t4.741-15.64q1.582-8.071 1.582-16.224v-499.2q8.154 0 16.223 1.664 8.072 1.498 15.642 4.659 7.488 3.162 14.395 7.739 6.738 4.493 12.562 10.317t10.317 12.562q4.577 6.822 7.739 14.395 3.162 7.57 4.741 15.639 1.582 8.072 1.582 16.225v499.199q0 8.154-1.664 16.224-1.498 8.070-4.659 15.642-3.162 7.488-7.739 14.394-4.493 6.738-10.317 12.563t-12.562 10.317q-6.822 4.576-14.395 7.737-7.57 3.162-15.639 4.743-8.072 1.581-16.225 1.581h-499.2q-8.154 0-16.224-1.665-8.069-1.497-15.641-4.659-7.488-3.161-14.394-7.737-6.74-4.493-12.564-10.317t-10.317-12.563q-4.575-6.823-7.737-14.394t-4.742-15.641q-1.581-8.072-1.581-16.225z" />
<glyph unicode="&#xe90e;" glyph-name="Live" d="M682.7 789.325c23.565 0 42.668-19.103 42.668-42.667v-179.2l222.42 155.734c6.52 4.57 15.040 5.129 22.103 1.451 7.060-3.678 11.484-10.983 11.476-18.944v-515.413c0.008-7.962-4.416-15.265-11.476-18.944-7.063-3.679-15.583-3.121-22.103 1.452l-222.42 155.732v-179.2c0-23.565-19.103-42.668-42.668-42.668h-597.333c-23.564 0-42.667 19.103-42.667 42.668v597.333c0 23.564 19.103 42.667 42.667 42.667h597.333zM315.768 583.288c-8.113 0.002-15.104-5.706-16.727-13.654l-0.34-3.37v-236.459c-0.002-11.948 11.955-20.198 23.124-15.956l3.116 1.536 185.812 118.272c9.272 5.932 10.588 18.957 2.688 26.624l-2.688 2.132-185.812 118.272c-2.752 1.706-5.934 2.594-9.172 2.56v0.043z" />
<glyph unicode="&#xe90f;" glyph-name="aside-Slots" d="M624.179 624.095c-109.778-18.821-212.147 7.020-316.201 23.895-73.915 11.95-100.349-12.096-101.191-78.71-1.179-91.108-1.179-90.063-103.885-89.764-37.547 0-52.195 11.203-51.69 45.704 1.684 130.537 1.515 261.075 0 391.763-0.337 32.112 11.112 46.599 48.491 42.268 13.806-1.643 27.95-0.299 42.093-0.299 58.762 0 59.772 0 64.823-50.781 2.694-27.183 14.985-19.715 31.822-10.306 61.96 34.95 126.11 63.626 203.223 61.535 64.993-1.792 117.187-30.917 170.56-57.801 64.824-32.41 130.657-33.605 197.164-6.422 27.95 11.5 55.058 25.54 76.273 45.703 23.572 22.553 43.776 24.046 65.329-0.896 4.209-4.929 9.26-9.559 14.815-13.143 31.319-19.566 29.297-37.489 9.766-67.36-79.304-122.174-128.973-255.998-181.166-388.627-19.868-50.483-33.843-102.607-54.385-152.791-46.641-113.661-36.705-227.471-2.189-340.685 10.606-35.098-2.358-41.521-37.043-41.372-150.019 0.599-300.037 0.899-449.886 0-34.348-0.297-48.491 10.307-46.639 41.372 8.587 145.923 49.669 281.838 153.050 399.084 26.266 29.722 57.413 54.067 94.456 73.034 62.464 31.813 143.452 113.51 172.242 174.748l0.169-0.148z" />
<glyph unicode="&#xe910;" glyph-name="aside-all" d="M0 576v281.6c0 56.554 45.846 102.4 102.4 102.4h281.6c56.553 0 102.4-45.846 102.4-102.4v-281.6c0-56.553-45.847-102.4-102.4-102.4h-281.6c-56.554 0-102.4 45.847-102.4 102.4zM537.6 576v281.6c0 56.554 45.847 102.4 102.4 102.4h281.6c56.553 0 102.4-45.846 102.4-102.4v-281.6c0-56.553-45.847-102.4-102.4-102.4h-281.6c-56.553 0-102.4 45.847-102.4 102.4zM0 38.4v281.6c0 56.553 45.846 102.4 102.4 102.4h281.6c56.553 0 102.4-45.847 102.4-102.4v-281.6c0-56.553-45.847-102.4-102.4-102.4h-281.6c-56.554 0-102.4 45.847-102.4 102.4zM537.6 38.4v281.6c0 56.553 45.847 102.4 102.4 102.4h281.6c56.553 0 102.4-45.847 102.4-102.4v-281.6c0-56.553-45.847-102.4-102.4-102.4h-281.6c-56.553 0-102.4 45.847-102.4 102.4z" />
<glyph unicode="&#xe911;" glyph-name="bar-dshare" horiz-adv-x="1026" d="M823.266 324.764c-63.524 0-119.424-30.491-154.998-78.769l-188.030 116.883c5.082 22.868 10.164 43.196 10.164 68.605s0 38.114-7.623 55.901l213.439 132.129c33.032-27.95 78.769-45.737 124.506-45.737 106.72 0 193.112 86.392 193.112 193.112s-86.392 193.112-193.112 193.112-193.112-86.392-193.112-193.112 2.541-40.655 10.164-58.442l-200.734-124.506c-45.737 58.442-114.342 94.015-193.112 94.015-134.67-2.541-243.931-114.342-243.931-249.012s109.261-246.471 246.471-246.471 139.752 33.032 185.489 83.851l200.734-124.506v-12.705c0-106.72 86.392-193.112 193.112-193.112s193.112 86.392 193.112 193.112-86.392 193.112-193.112 193.112z" />
<glyph unicode="&#xe912;" glyph-name="bar-deposit" d="M102.4-64c-56.554 0-102.4 45.847-102.4 102.4v640c0 56.554 45.846 102.4 102.4 102.4h716.8c113.108 0 204.8-91.692 204.8-204.8v-25.6h-256c-113.108 0-204.8-91.692-204.8-204.8s91.692-204.8 204.8-204.8h256c0-113.108-91.692-204.8-204.8-204.8h-716.8zM153.6 832h742.4c0 56.554-45.847 102.4-102.4 102.4h-537.6c-56.554 0-102.4-45.846-102.4-102.4zM614.4 345.6c0 84.831 68.769 153.6 153.6 153.6h256c0 0 0 0 0 0v-307.2c0 0 0 0 0 0h-256c-84.831 0-153.6 68.769-153.6 153.6z" />
<glyph unicode="&#xe913;" glyph-name="bar-home" d="M0 38.4c0-56.553 45.846-102.4 102.4-102.4h256v204.8c0 84.831 68.769 153.6 153.6 153.6s153.6-68.769 153.6-153.6v-204.8h256c56.553 0 102.4 45.847 102.4 102.4v462.784c0 31.107-14.141 60.529-38.431 79.962l-409.6 327.679c-37.399 29.919-90.54 29.919-127.939 0l-409.599-327.679c-24.291-19.433-38.431-48.855-38.431-79.962v-462.784zM512 243.2c-56.553 0-102.4-45.847-102.4-102.4v-204.8h204.8v204.8c0 56.553-45.847 102.4-102.4 102.4z" />
<glyph unicode="&#xe914;" glyph-name="bar-me" d="M512.013 448c141.384 0 256 114.616 256 256s-114.616 256-256 256c-141.386 0-256.001-114.615-256.001-256s114.614-256 256.001-256zM36.848 297.421c53.292 68.073 120.355 123.174 195.955 162.409 17.060 8.852 37.478 6.162 53.411-4.59 66.35-44.774 145.006-68.931 225.802-68.931 80.799 0 159.455 24.156 225.805 68.931 15.931 10.752 36.349 13.443 53.409 4.59 75.599-39.235 142.664-94.336 195.955-162.409 24.026-30.689 24.371-74.158 0.376-104.873-113.052-144.714-288.282-230.938-475.546-230.938-187.261 0-362.493 86.223-475.545 230.938-23.995 30.715-23.65 74.184 0.377 104.873z" />
<glyph unicode="&#xe915;" glyph-name="bar-Promot" d="M486.4 422.4h-358.4v-384c0-56.576 45.824-102.4 102.4-102.4h256v486.4zM537.6-64v486.4h358.4v-384c0-56.576-45.824-102.4-102.4-102.4h-256zM0 627.2v-102.4c0-28.16 23.040-51.2 51.2-51.2h435.2v204.8h-435.2c-28.16 0-51.2-23.040-51.2-51.2zM972.8 678.4h-435.2v-204.8h435.2c28.16 0 51.2 23.040 51.2 51.2v102.4c0 28.16-23.040 51.2-51.2 51.2zM814.336 936.448s-0.512 0.256-0.512 0.512c-80.64 55.296-171.264 3.584-236.544-74.496-5.632-6.656-11.008-13.312-16.384-19.968-19.2-23.552-35.072-45.312-47.104-64-0.256-0.512-0.768-1.024-1.024-1.792-0.256 0.512-0.768 1.28-1.024 1.792-12.032 18.944-28.16 40.448-47.104 64-5.12 6.4-10.752 13.056-16.384 19.968-65.792 78.080-156.16 129.792-236.8 74.496 0 0-0.512-0.256-0.512-0.512-66.56-47.104-84.736-182.016-2.048-226.304 4.096-2.304 8.448-4.352 13.056-6.144h582.144c4.608 2.048 8.704 4.096 12.544 6.144 79.616 44.032 64.512 179.2-2.048 226.304zM368.64 755.456c-58.112 1.792-99.328 9.216-123.648 22.272-10.752 5.632-15.616 19.2-14.336 39.936 1.536 26.624 9.728 45.312 24.32 55.552 0 0 0 0 0 0v0s0 0 0 0c0 0 0 0 0 0v0s0 0 0 0c35.328 24.32 80.128 4.096 134.144-60.416 18.176-21.504 33.024-40.448 44.544-56.576-17.92-1.28-39.68-1.792-65.024-0.768zM779.264 777.216c-22.784-12.544-63.232-19.968-121.6-21.76-25.856-0.768-47.872-0.512-66.048 1.024 11.52 16.128 26.368 35.072 44.544 56.576 54.016 64.512 98.816 84.736 133.888 60.672v0s0 0 0 0c0 0 0 0 0 0 14.336-10.24 22.272-28.672 23.552-55.296 1.024-21.504-3.84-35.328-14.336-41.216z" />
<glyph unicode="&#xe916;" glyph-name="broadcast" d="M325.151 110.211c-7.877-1.17-15.916-1.782-24.151-1.782h-150.5c-83.113 0-150.5 61.939-150.5 138.322v402.488c0 76.382 67.387 138.321 150.5 138.321h150.5c8.236 0 16.274-0.613 24.151-1.783l170.051 156.35c44.593 41.007 113.349 6.913 113.349-56.225v-875.765c0-63.137-68.756-97.283-113.349-56.276l-170.051 156.349zM842.903 781.518c14.136 15.188 37.033 15.163 51.141-0.057 80.264-86.588 129.956-206.214 129.956-338.259 0-134.789-51.776-256.627-134.989-343.603-14.328-14.979-37.225-14.615-51.136 0.812-13.914 15.427-13.573 40.077 0.755 55.053 69.765 72.919 113.044 174.853 113.044 287.739 0 110.595-41.541 210.67-108.826 283.257-14.108 15.22-14.085 39.87 0.054 55.058zM689.236 678.426c11.128 17.853 33.595 22.615 50.179 10.637 73.423-53.038 121.874-143.347 121.874-245.855 0-105.633-51.443-198.303-128.66-250.601-16.904-11.451-39.229-5.98-49.866 12.219-10.634 18.202-5.553 42.237 11.354 53.686 57.057 38.646 94.848 106.934 94.848 184.696 0 75.466-35.587 142.001-89.846 181.197-16.586 11.978-21.010 36.165-9.882 54.021z" />
<glyph unicode="&#xe917;" glyph-name="down-arrow" d="M54.973 592.067l415.173-415.073c19.996-19.99 52.408-19.989 72.402 0.003l426.903 426.864c30.129 30.126 30.138 78.971 0.020 109.107-30.125 30.144-78.982 30.159-109.125 0.033l-336.493-336.309c-9.999-9.993-26.204-9.99-36.201 0.005l-324.029 324.031c-30.003 30.003-78.646 30.006-108.652 0.005-30.011-30.006-30.011-78.661 0.003-108.667z" />
<glyph unicode="&#xe918;" glyph-name="close" d="M615.477 453.174l343.973 343.972c29.989 29.991 29.991 78.614 0.005 108.608l-0.026 0.026c-29.991 29.999-78.625 30.002-108.621 0.006l-343.97-343.971-343.934 343.933c-29.968 29.968-78.55 29.982-108.535 0.031-30.009-29.974-30.023-78.604-0.032-108.596l343.929-343.937-343.965-343.967c-29.991-29.991-29.993-78.614-0.006-108.608l0.026-0.026c29.992-29.999 78.625-30.001 108.621-0.005l343.964 343.962 343.99-343.998c29.978-29.978 78.581-29.986 108.565-0.015 29.996 29.981 30.001 78.602 0.013 108.59l-343.996 343.996z" />
<glyph unicode="&#xe919;" glyph-name="Crash" d="M1008.435 917.478c-3.144 13.403-13.622 23.882-27.026 27.026-197.507 45.392-412.941-8.604-566.492-162.154-21.619-21.676-41.585-44.951-59.676-69.605-5.13-7.005-12.465-11.802-20.849-13.898-80.195-19.855-157.467-61.773-221.611-125.919-28.68-28.68-53.721-60.78-74.404-95.693-17.539-29.619 12.52-64.53 44.785-52.618 50.963 18.808 106.007 28.076 162.706 28.129-0.772-4.854-1.93-9.597-2.592-14.451 39.822-46.328 81.352-91.169 124.539-134.41 43.241-43.187 88.082-84.718 134.413-124.539 4.854 0.66 9.595 1.82 14.449 2.591 0-56.753-9.265-111.798-28.127-162.706-11.914-32.264 22.999-62.323 52.616-44.785 34.86 20.682 67.013 45.724 95.693 74.404 64.146 64.143 106.007 141.417 125.865 221.555 2.094 8.384 6.948 15.718 13.898 20.849 24.709 18.092 47.985 38.057 69.604 59.676 153.551 153.551 207.547 368.985 162.156 566.494l0.054 0.055zM761.013 523.342c-47.985-47.985-125.752-47.985-173.683 0-47.985 47.985-47.985 125.752 0 173.683 47.985 47.984 125.752 47.984 173.683 0 47.985-47.985 47.985-125.752 0-173.683zM158.115 256.771c-37.229-37.229-195.082-267.886-150.131-312.837s275.608 112.902 312.838 150.131c37.228 37.229 30.996 103.801-13.955 148.752s-111.523 51.183-148.752 13.954z" />
<glyph unicode="&#xe91a;" glyph-name="customerservice" d="M952.773 583.841h3.005c37.683-0.015 68.221-31.393 68.221-70.095v-93.514c0-38.702-30.538-70.080-68.221-70.095h-17.111c-47.13 0-85.335 39.237-85.335 87.639 0 1.94 0.064 3.884 0.189 5.819h-0.12v23.393h-0.069c0 193.61-152.819 350.56-341.332 350.56s-341.333-156.95-341.333-350.56c0-176.445 126.928-322.445 292.125-346.941 16.681 16.425 38.897 25.597 62.008 25.597h76.8c49.485 0 89.6-41.201 89.6-92.022s-40.115-92.022-89.6-92.022h-76.8c-30.531 0-58.962 15.967-75.436 42.368-183.857 25.992-332.678 164.772-378.138 346.168h-3.005c-37.683 0.015-68.222 31.393-68.222 70.095v93.514c0 38.702 30.54 70.080 68.222 70.095h3.005c50.522 201.598 228.71 350.559 440.773 350.559s390.252-148.961 440.773-350.559zM341.332 408.563c0-32.269 25.472-58.427 56.891-58.427s56.888 26.158 56.888 58.427v116.851c0 32.269-25.469 58.427-56.888 58.427s-56.891-26.158-56.891-58.427v-116.851zM568.888 408.563c0-32.269 25.469-58.427 56.888-58.427s56.891 26.158 56.891 58.427v116.851c0 32.269-25.472 58.427-56.891 58.427s-56.888-26.158-56.888-58.427v-116.851z" />
<glyph unicode="&#xe91b;" glyph-name="Fishing" d="M966.983 956.619c-42.598-4.8-65.999-10.2-120.998-27.8-111.8-36-246.001-90.4-310.001-125.8-7.199-4-21.399-11.8-31.601-17.2-33.6-18.2-87.8-53.2-109.798-71-68.401-55.4-137.001-138.001-178.201-214.801-12.6-23.398-26.8-65.999-32.2-96.2-4-22.4-6-46.799-3.8-48.799 1.8-1.8 77.2 24.799 93.2 32.799 8.399 4.201 20.001 11 25.8 14.799 11.599 7.8 12.201 5.002 1.001-3.999-15.601-12.401-75.601-42.801-108.2-54.6-13-4.8-65.8-34.202-86.2-48-16.8-11.4-38.6-32.602-52.2-50.601-12.2-16.2-33.8-56.2-31.4-58.399 0.6-0.801 14.6 3.999 30.8 10.598 60 24 107.8 37.601 151.4 43.4 28.8 3.602 27.2 3.602 21.8-0.2-2.4-1.6-4.4-4.398-4.4-5.998 0-8 17.8-33.802 44-64 40.801-46.602 107.801-92.8 163-112.202 49.6-17.6 82.202-20.8 161.001-16 68.6 4.201 88.799 4.401 100.198 0.402 11-4.001 15.401-8 31.8-30.001 34.601-46.4 31.401-43.599 68.8-60.6 18.202-8.2 33.6-14.6 34.002-14.2 0.998 1.001-14.001 59.4-21.601 84.001-10.199 33.999-6.999 55.8 17.6 115.799 39.201 95.201 53.199 129.8 53.199 132.6 0 7.401-20.198 13.399-35.2 10.399-16.2-2.998-67.2-59.2-104.799-115.4-35-51.999-42.401-61-53.402-65.999-13.199-5.801-30.799-4.201-50.598 4.6-36.6 16.2-59.2 33.6-81.001 61.801-10.801 14.198-15.601 23.398-23.199 46.4-11.4 34.598-11.802 35.2-15.8 19.999-1.4-5.199-2.801-8.399-3.4-6.999-0.402 1.4 0.599 8 2.399 14.999 9.8 38.999 40.602 82.801 75.2 107.4 30.4 21.801 93.402 56.801 127.8 71.201 28.6 11.999 73.999 35.2 92.001 46.999 60.198 39.8 104.799 86.2 135.598 141.399 19 34.002 26.401 53.801 26.401 70.602 0 15.598-1.201 16.599-10.401 8.998-3.2-2.801-6.6-4.6-7.598-3.999-0.801 0.599-2.202 5.599-3 11-0.801 5.599-2.202 9.999-3 9.999-1.001 0-3.4-2.2-5.601-4.999-2.199-2.801-4.8-5-5.998-5-1.001 0-3.802 4.598-6.2 9.999-3.802 9-8.2 13.2-8.2 8 0-1-3.2-7.6-7.002-14.399l-6.799-12.401-5.199 11.4c-2.801 6.401-5 12.801-5 14.401 0 5-3.2 3.4-8.602-4.4-6.799-10.2-8.399-16.001-5-20 2.199-3 2.199-3.2-1.001-1.999-1.999 0.799-3.999 1.4-4.598 1.4-0.402 0-2.202 3.4-3.802 7.398-3.2 7.6-8.399 14.6-11 14.6-0.799 0-3.2-5.8-5.199-13-3-11.4-3.999-13.199-7.601-12.6-3.2 0.402-4.8 3.2-6.999 11.2-2.401 9.001-3.4 10.601-6.999 10.001-3.402-0.4-4.401-2.4-5.202-10.2-0.599-5.199-2.598-10.801-4.398-12.6-3-3-3.802-2.399-10.002 7.002-3.599 5.599-7.8 10.199-9.198 10.199-2.801 0-6.4-8-6.4-14.6 0-2.401-1.001-5.801-2.002-7.401-1.8-2.399-3.4-1.4-9.8 5.801-9.201 10.199-13.199 9.999-13.798-1.001-0.402-4.398-1.802-9.198-3.402-10.798-2.598-2.401-3.799-2.002-9.8 3.799-3.799 3.599-7.8 6.001-8.998 5.399-1.001-0.799-2.601-5.399-3.4-10.199-0.602-5-1.4-9.001-1.802-9.001-0.2 0-3.599 1.201-7.199 2.801-15.8 6.4-15.8 6.4-15.8-3.599v-9.201l-25.201-11.999c-13.998-6.602-25.6-11.802-25.999-11.402-1.8 1.802 22.999 26.601 40.801 41.001 37.998 30.6 77.798 51 120.399 61.8 26.801 7 64.599 8.4 88.998 3.6 18.401-3.6 40.202-11.6 52.201-19.2 3.799-2.2 7.401-3.6 8.399-3 2.002 1.2 5 14.8 9.6 44.2 4.401 28.4 5 98.6 1.001 122.2-2.601 14.6-2.401 17.8 0.399 28s2.801 14 0.602 27.4c-3.402 20.6-8.602 25.8-24.202 24zM929.784 888.219c0-4-0.799-9-1.6-11-1.201-3.4-1.999-3-5.599 2.8-4.001 6.2-4.001 7-1.001 13.2 4.001 8.4 8.399 5.8 8.2-5zM731.184 852.819c11.2-5.4 11.599-7.2 4.6-18.6-3.599-5.6-6.001-10.6-5.601-11 0.402-0.6 5.402-2.6 10.801-4.8 11.4-4.6 12.001-7.4 3.4-18.2-16.599-20.8-45.599-18-58.798 5.8-2.801 5.2-3.602 9.8-3 17.6 1.8 23.8 27.4 39.2 48.599 29.2zM224.985 700.62c-18.2-2.002-43.2-7.201-46-9.4-3-2.202-1.6-3 10.2-7.002 26.6-8.799 68.4-34.199 85.8-51.999 4.201-4.6 8.799-8.2 10-8 1.8 0 53 61.801 54.6 65.8 0.602 1.4-22.6 6.4-45.599 9.999-12.201 1.801-55.601 2.201-69 0.602zM691 396.197c-53.8-23.2-93.2-47.4-130.2-80-22.8-19.8-22.6-23.6 0.2-19 109.4 21.4 211.6 17.8 310.8-11 11.599-3.4 21.399-5.6 22.001-5 1.8 1.8-37.801 39-60.8 57-41.8 32.8-100.6 68-113.2 67.6-3.8-0.2-16.6-4.4-28.8-9.6z" />
<glyph unicode="&#xe91c;" glyph-name="GouXuan" d="M976.038 657.065l-491.907-547.812c-17.073-19.013-45.55-22.525-66.734-8.233l-355.071 239.593c-34.323 23.16-43.157 69.875-19.662 103.969 23.172 33.626 69.105 42.312 102.956 19.469l289.024-195.023 434.57 483.96c26.488 29.499 71.875 31.939 101.373 5.451s31.939-71.875 5.45-101.373z" />
<glyph unicode="&#xe91d;" glyph-name="a-VisittheHelpCenter" d="M512 960c282.77 0 512-229.23 512-512s-229.23-512-512-512c-282.77 0-512 229.23-512 512s229.23 512 512 512zM385.661 609.149q-21.348-33.951-21.348-67.2c0-10.732 4.431-20.767 13.299-30.1 9.101-9.098 20.183-13.65 33.249-13.65q33.249 0 45.151 39.552 12.6 37.798 30.799 57.050c12.134 13.066 31.035 19.599 56.701 19.599 21.932 0 39.782-6.418 53.55-19.251q21-19.249 21-47.25c0-9.567-2.335-18.432-7.002-26.598-4.431-8.166-10.033-15.634-16.799-22.4-6.533-6.533-17.267-16.333-32.2-29.402-17.034-14.932-30.566-27.881-40.602-38.848-10.033-10.734-18.084-23.334-24.148-37.801-6.067-14.234-9.101-31.15-9.101-50.749q0-23.45 12.25-35.351c8.399-7.933 18.668-11.899 30.799-11.899q35 0 41.651 36.401c2.568 11.433 4.434 19.366 5.599 23.798 1.4 4.667 3.269 9.219 5.601 13.65 2.332 4.667 5.834 9.684 10.501 15.050 4.9 5.601 11.315 12.017 19.249 19.251 28.7 25.667 48.532 43.866 59.5 54.6 11.2 10.967 20.767 23.916 28.7 38.851 8.166 14.932 12.25 32.315 12.25 52.15q0 37.798-21.35 70.001c-13.998 21.466-33.948 38.382-59.848 50.749q-38.851 18.9-89.6 18.9-54.602 0-95.552-22.4t-62.3-56.701zM497.661 171.999c10.734-9.098 23.217-13.65 37.45-13.65 13.768 0 25.902 4.667 36.401 14.001 10.501 9.334 15.749 22.167 15.749 38.5 0 14.7-5.015 27.067-15.048 37.1-10.035 10.035-22.4 15.050-37.102 15.050-14.932 0-27.533-5.015-37.798-15.050-10.268-10.033-15.401-22.4-15.401-37.1 0-16.566 5.251-29.517 15.749-38.851z" />
<glyph unicode="&#xe91e;" glyph-name="information" d="M303.887 64c45.755-77.509 130.143-125.071 221.914-125.071 91.768 0 176.156 47.562 221.911 125.071h-443.825zM568.878 903.111c0-0.832-0.018-1.663-0.054-2.494 155.93-18.317 277.373-135.815 284.206-280.127h0.302l-0.003-128.458 0.003-1.349c0.497-96.678 54.428-212.759 136.407-264.855 20.539-11.261 34.26-31.654 34.26-54.943 0-35.474-31.836-64.23-71.112-64.23h-881.777c-39.274 0-71.111 28.756-71.111 64.23 0 23.288 13.722 43.681 34.26 54.943 81.979 52.096 135.91 168.177 136.406 264.855l0.003 1.349-0.003 128.458h0.302c6.833 144.305 128.267 261.799 284.186 280.124-0.036 0.832-0.056 1.664-0.056 2.497 0 31.419 25.472 56.889 56.891 56.889s56.888-25.47 56.888-56.889z" />
<glyph unicode="&#xe91f;" glyph-name="Install" d="M916.911 769.007l-65.889 79.665c-13.189 16.6-33.288 26.2-54.49 26.026h-568.93c-22.247 0-41.691-9.935-54.979-26.088l-65.402-79.603c-14.188-16.849-21.922-38.194-21.821-60.221v-592.578c0-52.175 42.667-94.84 94.842-94.84h663.711c52.114 0 94.779 42.665 94.779 94.84v592.578c0 22.735-8.046 44.069-21.821 60.221zM512.068 185.451l-262.583 262.582h164.084v131.29h196.936v-131.29h164.083l-262.52-262.582zM183.839 776.26l32.792 65.646h590.75l32.791-65.646h-656.334z" />
<glyph unicode="&#xe920;" glyph-name="Lazer" d="M510.395 732.242v15.208c0 13.784-6.917 41.351 62.103 41.351 75.886 6.917 131.069 0 144.904 75.886v56.914h-75.886v-29.296q13.786-41.402-110.369-41.402-96.586 6.917-96.586-68.968v-49.692h75.835zM689.992 715.103h-355.983c-184.475 0-334.008-149.533-334.008-334.009v-60.221c0-184.476 149.534-334.008 334.008-334.008h355.983c184.474 0 334.008 149.532 334.008 334.008v60.221c0 184.476-149.535 334.009-334.008 334.009zM437.056 319.296h-101.724v-101.722c0-22.482-18.209-40.691-40.689-40.691-22.482 0-40.69 18.209-40.69 40.691v101.722h-101.723c-22.481 0-40.689 18.209-40.689 40.691 0 22.479 18.209 40.689 40.689 40.689h101.723v101.724c0 22.479 18.209 40.689 40.69 40.689 22.479 0 40.689-18.209 40.689-40.689v-101.724h101.724c22.479 0 40.689-18.209 40.689-40.689 0-22.482-18.209-40.691-40.689-40.691zM634.45 309.125c-28.076 0-50.862 22.787-50.862 50.862s22.787 50.862 50.862 50.862c28.076 0 50.862-22.787 50.862-50.862s-22.787-50.862-50.862-50.862zM752.957 188.582c-28.076 0-50.862 22.787-50.862 50.862s22.787 50.862 50.862 50.862c28.076 0 50.862-22.787 50.862-50.862s-22.787-50.862-50.862-50.862zM752.957 431.194c-28.076 0-50.862 22.787-50.862 50.862s22.787 50.86 50.862 50.86c28.076 0 50.862-22.784 50.862-50.86s-22.787-50.862-50.862-50.862zM872.484 309.125c-28.078 0-50.862 22.787-50.862 50.862s22.784 50.862 50.862 50.862c28.076 0 50.86-22.787 50.86-50.862s-22.784-50.862-50.86-50.862z" />
<glyph unicode="&#xe921;" glyph-name="left-arrow" d="M656.067 905.027l-415.073-415.173c-19.99-19.996-19.989-52.408 0.003-72.402l426.864-426.903c30.126-30.129 78.971-30.138 109.107-0.020 30.144 30.125 30.159 78.982 0.033 109.125l-336.309 336.493c-9.993 9.999-9.99 26.204 0.005 36.201l324.031 324.029c30.003 30.003 30.006 78.646 0.005 108.652-30.006 30.011-78.661 30.011-108.667-0.003z" />
<glyph unicode="&#xe922;" glyph-name="set" d="M102.4 908.8h819.2c42.415 0 76.8-34.385 76.8-76.8s-34.385-76.8-76.8-76.8h-819.2c-42.415 0-76.8 34.385-76.8 76.8s34.385 76.8 76.8 76.8zM25.6 448c0 42.415 34.385 76.8 76.8 76.8h563.2c0 0 0 0 0 0v-153.6c0 0 0 0 0 0h-563.2c-42.415 0-76.8 34.385-76.8 76.8zM102.4 140.8h819.2c42.415 0 76.8-34.385 76.8-76.8s-34.385-76.8-76.8-76.8h-819.2c-42.415 0-76.8 34.385-76.8 76.8s34.385 76.8 76.8 76.8zM836.058 615.65c-16.552 14.483-42.458 2.728-42.458-19.266v-245.566c0-21.996 25.905-33.751 42.458-19.267l140.324 122.783c11.656 10.199 11.656 28.333 0 38.532l-140.324 122.783z" />
<glyph unicode="&#xe923;" glyph-name="Lobby-close" d="M102.4 908.8h819.2c42.415 0 76.8-34.385 76.8-76.8s-34.385-76.8-76.8-76.8h-819.2c-42.415 0-76.8 34.385-76.8 76.8s34.385 76.8 76.8 76.8zM25.6 448c0 42.415 34.385 76.8 76.8 76.8h563.2c0 0 0 0 0 0v-153.6c0 0 0 0 0 0h-563.2c-42.415 0-76.8 34.385-76.8 76.8zM102.4 140.8h819.2c42.415 0 76.8-34.385 76.8-76.8s-34.385-76.8-76.8-76.8h-819.2c-42.415 0-76.8 34.385-76.8 76.8s34.385 76.8 76.8 76.8zM955.942 615.65c16.552 14.483 42.458 2.728 42.458-19.266v-245.566c0-21.996-25.905-33.751-42.458-19.267l-140.324 122.783c-11.656 10.199-11.656 28.333 0 38.532l140.324 122.783z" />
<glyph unicode="&#xe924;" glyph-name="password-xs" d="M6.606 473.59c-4.785-16.627-4.354-34.158 1.156-50.56 71.278-212.15 265.339-384.63 504.233-384.63 237.96 0 431.427 182.548 503.391 383.565 6.016 16.799 6.776 35.103 1.818 52.244-61.215 211.582-266.783 383.391-505.208 383.391-238.661 0-444.412-172.144-505.389-384.010zM742.387 448c0-127.247-103.155-230.4-230.4-230.4-127.247 0-230.4 103.153-230.4 230.4s103.153 230.4 230.4 230.4c127.245 0 230.4-103.153 230.4-230.4zM511.987 320c70.692 0 128 57.308 128 128s-57.308 128-128 128c-70.694 0-128-57.308-128-128s57.306-128 128-128z" />
<glyph unicode="&#xe925;" glyph-name="Poker" d="M768 243.2l240.079 296.133c24.325 28.933 20.326 72-8.909 96.133l-231.171 201.984v-594.25zM0 891.733v-887.466c0-37.734 30.831-68.268 68.857-68.268h576.442c38.026 0 68.851 30.518 68.851 68.25v887.5c0 37.733-30.825 68.25-68.851 68.25h-576.442c-38.026 0-68.857-30.533-68.857-68.267zM149.3 678.249l-13.25-43.2h-41.6l65.75 188.401h45l64.55-188.401h-41.8l-13.45 43.2h-65.2zM182.3 790.95h-1c-0.454-5.467-1.469-10.833-3.1-15.9l-20.55-65.85h47.85l-20.4 65.35c-1.53 5.333-2.464 10.8-2.8 16.4zM556.201 270.4c-38.682-45.066-106.020-45.066-144.701 0l-2.099 2.399c12.659-48 37.67-91.348 72.3-125.348l1.101-2.102h-190.152l1.101 2.102c34.632 33.999 59.643 77.348 72.3 125.348l-2.099-2.399c-38.682-45.066-106.068-45.066-144.75 0-39.741 46.533-39.741 117.066 0 163.599l168.55 213.601 168.499-213.601c39.708-46.533 39.657-117.066-0.049-163.599z" />
<glyph unicode="&#xe926;" glyph-name="Providers" d="M263.516 695.092l178.153 148.928c48.896 40.035 113.526 50.399 169.836 26.406l283.361-119.112c18.816-8.098 38.525-11.502 57.336-11.502h46.843c13.568 0 24.955-11.5 24.955-26.411v-382.765c0-14.902-11.517-27.543-24.955-27.543h-61.435c-8.317 0-17.661-3.402-23.928-9.226l-13.565-12.636c-3.075-3.405-8.317-2.266-11.517 1.139l-330.204 442.393c-8.317 11.5-22.909 13.768-34.427 6.815l-151.020-92.852c-30.208-18.316-66.68-20.589-98.931-5.679-16.643 8.091-24.959 29.817-17.667 49.262-0.128 4.687 2.941 9.234 7.165 12.783zM30.201 304.233h53.112l37.503 50.404c33.276 44.723 93.681 50.399 134.384 13.768 14.591-13.768 25.983-32.082 31.226-52.669 32.253-9.229 57.339-36.634 66.68-72.266 22.909-7.951 43.768-24.138 55.163-48.128 19.84-3.415 38.525-13.778 53.11-29.819 30.211-35.494 36.477-88.305 13.568-130.614l-5.24-10.365v-1.134c24.95-18.317 58.353-12.639 76.019 14.902 8.317 13.775 11.517 29.816 8.317 45.857v1.139h1.027l4.224-4.541c18.811-20.59 49.014-24.138 70.774-7.951 17.659 13.768 25.976 37.76 21.885 60.762v1.139h1.024l4.227-4.544c18.685-20.59 47.862-23.992 70.771-7.949 17.661 13.768 27.133 37.76 22.909 60.762v0.998h1.027l4.224-4.547c17.661-19.453 45.819-22.858 66.68-9.226 25.976 17.178 34.427 53.806 18.811 82.486-2.043 3.402-4.219 6.815-6.269 9.226l-33.277 44.721-269.793 360.899c-3.067 3.411-7.293 4.547-11.517 2.274l-129.134-79.079c-41.725-25.275-90.614-29.814-135.409-11.5-24.959 9.226-43.769 30.953-53.112 57.358-7.3 27.543-4.225 57.36 9.343 81.351 3.068 6.815 1.024 14.906-5.249 18.315-2.051 1.138-4.225 1.138-6.268 1.138h-175.979c-13.568 0-24.96-11.5-24.96-26.413v-381.626c5.247-13.624 16.633-25.126 30.201-25.126zM217.697 331.779c-20.86 12.636-45.814 6.812-60.406-13.77l-36.476-49.27c-15.611-21.716-13.568-53.806 6.273-70.986h1.019l5.249-4.541c14.592-12.639 35.453-13.775 51.069-4.549 1.026 1.139 2.045 0 3.068-1.132v-2.273c-3.068-18.312 3.075-37.765 16.643-49.267l4.217-3.405c14.592-12.639 33.278-13.773 50.045-5.678 1.024 1.132 3.075 0 3.075-1.137v-1.137c-2.051-17.18 5.243-34.358 17.659-45.86l3.069-2.271c14.592-12.639 33.277-14.904 50.045-4.544 1.024 1.139 3.075 0 3.075-1.134v-1.139c2.043-12.639 8.317-24.133 17.659-32.082l2.051-1.139c20.859-17.18 50.038-13.775 65.654 9.226 1.027 2.276 3.069 4.541 4.227 5.678l6.267 12.639c11.517 21.716 8.317 48.131-8.32 65.308-13.565 13.768-33.275 17.178-51.067 9.229-1.019 0-1.019 0-2.043 1.134v1.139c1.024 27.543-18.819 51.535-43.771 53.809-6.275 0-12.541-1.137-18.816-3.412q-7.293-1.134-5.248 5.681c9.341 26.409-1.027 54.945-24.955 66.442-12.541 5.678-28.158 4.544-39.552-2.271q-5.243-1.139-4.217 4.547c13.691 21.44 6.399 52.396-15.493 66.166z" />
<glyph unicode="&#xe927;" glyph-name="Recommend" d="M691.188 731.139c13.522-24.986 36.809-42.607 63.804-48.28l192.968-40.555c33.525-7.045 60.804-32.363 71.374-66.241 10.57-33.881 2.788-71.061-20.359-97.288l-133.229-150.944c-18.636-21.114-27.532-49.63-24.371-78.119l22.602-203.681c3.927-35.386-10.762-70.232-38.432-91.17-27.67-20.94-64.027-24.721-95.125-9.897l-179.001 85.328c-25.039 11.937-53.825 11.937-78.864 0l-179.001-85.328c-31.101-14.825-67.456-11.044-95.126 9.897-27.67 20.938-42.358 55.784-38.431 91.17l22.601 203.681c3.162 28.49-5.734 57.005-24.37 78.119l-133.23 150.944c-23.147 26.227-30.928 63.407-20.359 97.288 10.569 33.878 37.847 59.196 71.374 66.241l192.969 40.555c26.992 5.673 50.28 23.295 63.801 48.28l96.661 178.618c16.793 31.033 48.342 50.231 82.543 50.231 34.203 0 65.749-19.198 82.543-50.231l96.661-178.618zM180.356 889.582v-65.792c0-22.71 17.676-41.12 39.48-41.12s39.479 18.41 39.479 41.12v65.792c0 22.71-17.675 41.12-39.479 41.12s-39.48-18.41-39.48-41.12zM748.864 889.582v-65.792c0-22.71 17.676-41.12 39.479-41.12 21.806 0 39.479 18.41 39.479 41.12v65.792c0 22.71-17.674 41.12-39.479 41.12-21.803 0-39.479-18.41-39.479-41.12zM351.848 383.574c27.194-65.747 89.145-110.792 160.137-110.792 70.995 0 132.943 45.045 160.139 110.792 11.164 26.989-11.085 53.69-39.3 53.69h-241.676c-28.216 0-50.464-26.7-39.3-53.69z" />
<glyph unicode="&#xe928;" glyph-name="right-arrow" d="M380.333 905.027l415.073-415.173c19.99-19.996 19.989-52.408-0.003-72.402l-426.864-426.903c-30.126-30.129-78.971-30.138-109.107-0.020-30.144 30.125-30.159 78.982-0.033 109.125l336.309 336.493c9.993 9.999 9.99 26.204-0.005 36.201l-324.031 324.029c-30.003 30.003-30.006 78.646-0.005 108.652 30.006 30.011 78.661 30.011 108.667-0.003z" />
<glyph unicode="&#xe929;" glyph-name="icon-Roulette" d="M124.502 476.863c6.418 85.228 41.073 162.753 94.468 223.335l-89.077 89.077c-75.215-84.2-123.219-192.786-129.893-312.412h124.502zM260.034 740.773c61.096 51.341 138.621 83.686 223.078 88.563v130.663c-119.626-6.674-228.213-54.678-312.412-129.893l89.334-89.334zM218.97 195.791c-53.651 60.583-88.050 138.108-94.468 223.334h-124.502c6.674-119.625 54.678-228.211 129.893-312.412l89.077 89.078zM540.9 960v-131.433c82.659-7.701 157.617-42.1 216.66-94.211l95.752 95.751c-84.201 75.215-193.044 123.219-312.412 129.893zM886.157 419.125c-6.161-81.889-38.249-156.847-88.307-216.403l96.008-96.009c75.215 84.2 123.219 192.787 129.893 312.412h-137.594zM797.85 693.267c50.058-59.556 82.146-134.514 88.307-216.404h137.594c-6.674 119.626-54.679 228.213-129.893 312.412l-96.008-96.008zM757.56 161.65c-59.042-52.111-134-86.51-216.66-94.211v-131.433c119.625 6.674 228.211 54.679 312.412 129.893l-95.752 95.751zM483.112 66.936c-84.457 4.877-161.982 37.222-223.078 88.563l-89.334-89.334c84.199-75.215 192.786-123.219 312.412-129.893v130.663zM505.433 772.85c-178.668 0-324.733-146.066-324.733-324.733s146.066-324.733 324.733-324.733c178.668 0 324.733 146.066 324.733 324.733s-146.066 324.733-324.733 324.733zM690.519 310.266l-40.817-40.817-92.157 92.157h-91.387l-92.158-92.157-40.816 40.817 92.157 92.157v91.387l-92.157 92.158 40.816 40.816 92.158-92.157h91.387l92.157 92.157 40.817-40.816-92.157-92.158v-91.387l92.157-92.157zM485.45 474.575h52.881v-52.881h-52.881v52.881z" />
<glyph unicode="&#xe933;" glyph-name="select" d="M835.82 216.876c57.001 77.448 90.706 173.292 90.706 277.059 0 257.401-207.409 466.066-463.263 466.066s-463.263-208.665-463.263-466.066 207.41-466.066 463.263-466.066c110.95 0 212.792 39.24 292.559 104.676l183.936-196.544 84.242 79.795-188.18 201.080zM708.946 741.103q101.765-102.38 101.765-247.169t-101.765-247.168q-101.765-102.382-245.683-102.382t-245.682 102.382q-101.765 102.38-101.765 247.168t101.765 247.169q101.764 102.381 245.682 102.381t245.683-102.381z" />
<glyph unicode="&#xe934;" glyph-name="a-Accountsettings" d="M816.724 842.225c-23.785 41.197-67.74 66.575-115.31 66.575h-378.852c-47.57 0-91.525-25.378-115.31-66.575l-189.425-328.095c-23.785-41.196-23.785-91.953 0-133.148l189.425-328.095c23.785-41.196 67.74-66.575 115.31-66.575h378.852c47.57 0 91.525 25.38 115.31 66.575l189.425 328.095c23.785 41.196 23.785 91.953 0 133.148l-189.425 328.095zM778.289 442.778c0-147.075-119.227-266.301-266.299-266.301-147.075 0-266.3 119.227-266.3 266.301 0 147.072 119.226 266.298 266.3 266.298 147.072 0 266.299-119.226 266.299-266.298zM511.99 309.627c73.536 0 133.148 59.612 133.148 133.151 0 73.536-59.612 133.148-133.148 133.148-73.539 0-133.151-59.612-133.151-133.148 0-73.539 59.612-133.151 133.151-133.151z" />
<glyph unicode="&#xe935;" glyph-name="side-collect" d="M512-64c282.77 0 512 229.23 512 512s-229.23 512-512 512c-282.77 0-512-229.23-512-512s229.23-512 512-512zM294.331 624.056c54.702 67.889 147.771 72.832 207.872 11.044l9.802-10.076 9.8 10.076c60.104 61.788 153.172 56.845 207.875-11.044 26.268-32.599 39.997-75.653 38.162-119.688-1.608-38.664-15.114-75.482-38.188-104.1-3.095-3.843-6.351-7.516-9.751-11.013l-158.374-162.819c-28.073-28.861-70.976-28.861-99.046 0l-158.374 162.819c-3.402 3.497-6.656 7.171-9.751 11.013-51.126 63.416-51.136 160.358-0.026 223.788z" />
<glyph unicode="&#xe936;" glyph-name="side-Recently" d="M512-64c282.77 0 512 229.23 512 512s-229.23 512-512 512c-282.77 0-512-229.23-512-512s229.23-512 512-512zM455.099 442.278v295.822c0 28.277 22.925 51.2 51.2 51.2h11.379c28.278 0 51.2-22.923 51.2-51.2v-233.199h347.021c28.278 0 51.2-22.925 51.2-51.2v-11.379c0-28.278-22.922-51.2-51.2-51.2h-396.088c-0.712-0.028-1.421-0.044-2.132-0.044h-11.379c-28.275 0-51.2 22.922-51.2 51.2z" />
<glyph unicode="&#xe937;" glyph-name="Sports" d="M766.996 592.918c4.864-30.208 5.888-50.176 5.888-50.432v-0.512c2.048-2.048 4.864-3.84 8.448-5.632 47.872-23.040 87.552-56.576 119.552-99.072 0-0.256 0.512-0.512 0.512-1.024 14.848 8.96 61.696 39.168 92.928 75.776 2.304 23.040 0 40.704-2.048 63.488l-1.024 4.608c-33.28 97.28-87.808 155.392-127.744 187.392-29.44 23.552-55.296 36.352-69.12 42.24-25.344-17.664-50.688-35.072-76.288-52.736 0-0.256 0.256-0.512 0.512-0.768 20.48-43.776 33.536-89.088 41.472-126.976 3.328-12.032 5.632-24.32 6.912-36.608v0.256zM706.568 755.184c-37.12 27.136-78.080 46.848-122.88 57.856-16.128 4.096-32.512 6.656-49.152 8.96-15.36 0-26.624-0.768-30.72-1.024-12.288-8.96-112.896-81.408-169.216-137.984 3.84-18.176 30.464-123.904 49.152-196.608 19.2-7.424 134.656-51.712 227.328-75.008 0.256 0 0.768 0.512 1.024 0.512 0.256 0.512 0.512 0.768 1.024 1.28 40.96 48.384 88.576 89.344 141.824 123.648 2.816 3.328 5.12 5.632 6.4 7.168-1.28 16.128-9.728 115.712-52.992 207.36-0.512 1.28-1.28 2.56-1.792 3.584v0.256zM150.219 660.745c19.968 6.912 39.168 14.591 58.88 19.967 37.12 9.984 75.008 7.936 112.64 4.096 0.256 0 0.768 0 1.024 0v2.56l1.536 1.792c60.16 61.184 173.056 141.568 174.080 142.336l1.28 0.768h0.768c-6.656 26.624-13.312 52.992-19.968 79.616-0.256 1.536-1.024 2.816-1.536 4.096-10.752 3.584-34.816 9.984-69.632 10.24-32.512 0.512-79.872-4.608-137.984-26.112-21.248-11.264-41.472-24.064-60.928-38.144-18.176-24.576-36.352-49.152-54.016-74.24-2.56-3.84-4.864-7.936-6.656-12.288h1.28q-14.080-72.192-0.768-114.943v0.256zM654.411 213.27q-0.512 2.048-0.768 3.072c-14.848 61.184-29.184 122.112-44.032 183.296q0 0.256 0 0.512c-101.632 25.6-231.425 76.288-232.705 76.8q-1.28-1.536-2.048-2.304c-46.848-44.288-93.184-88.832-140.544-132.608-0.512-0.512-1.28-1.024-1.792-1.792-0.512-15.872-1.792-127.744 52.224-208.64 0.256 0 0.768-0.256 1.024-0.512 40.448-27.648 82.944-50.944 131.584-59.904 22.272-4.096 44.8-5.888 67.328-8.448 66.817 35.584 156.929 135.68 169.985 150.272l-0.256 0.256zM619.596-25.596c54.528 5.632 136.192 24.32 215.552 81.664l0.512-0.768c9.216 14.080 18.432 28.416 28.16 41.984 9.728 36.096-17.408 101.376-27.648 124.416q-0.512 0-0.768 0c-55.040-19.456-111.36-24.832-168.96-17.152-1.28 0-2.56 0.256-3.84 0.512-15.616-17.664-100.608-111.616-168.704-149.76 10.24-26.88 20.48-53.504 31.232-80.128 13.568-1.792 48.64-5.376 94.72-0.512l-0.256-0.256zM12.8 389.878c9.728 16.128 38.4 57.856 75.776 69.12 0.512 2.816 0.512 5.888 1.024 8.704 7.168 54.016 18.688 107.008 40.448 157.184 1.024 2.304 1.792 4.352 2.816 6.656 3.328 6.656 6.656 13.312 8.704 20.224-14.336 37.888-6.144 98.304-2.816 118.784-11.776-4.352-23.296-8.704-34.56-13.056-65.536-86.016-104.192-193.28-104.192-309.504 0-13.312 0.512-26.624 1.536-39.936 3.84-6.144 7.68-12.032 11.264-18.176zM620.338-37.108c-17.408-1.792-33.28-2.56-47.104-2.56-29.184 0-48.64 2.816-54.528 3.84-26.88-11.52-54.528-19.456-83.456-22.528 25.088-3.84 50.944-5.888 77.056-5.888 89.856 0 174.080 23.040 247.296 63.744-52.736-23.296-102.144-33.024-139.264-36.864v0.256zM259.36 3.322c-16.384 18.944-32 38.656-48.128 58.112-2.304 2.816-5.632 4.864-7.68 6.656 1.792 1.024 5.376 2.304 7.936 4.608 20.48 18.432 40.704 37.12 60.928 55.808q0 0.256 0.256 0.256c-28.672 44.8-41.216 97.024-46.848 134.656-5.12 34.816-5.376 62.72-5.12 73.984-0.768 0.512-1.536 1.28-2.304 1.792-37.376 25.088-73.728 51.456-104.448 84.48-7.424 7.936-14.336 16.128-21.504 24.576-41.216-11.776-72.96-69.376-73.216-69.888l-0.768 0.512c-1.536-16.128-3.328-32-4.864-48.128 33.024-141.056 124.416-259.584 247.296-328.96-0.512 0.512-1.024 1.024-1.28 1.536h-0.256zM410.448 937.472c44.288-0.512 71.424-10.24 78.080-13.056 50.944 20.224 103.168 20.736 155.648 5.632 64.256-18.688 118.528-52.736 156.928-109.056 0.512-0.768 1.024-1.536 1.28-2.304 14.848-6.656 39.68-19.712 68.096-42.24 39.68-31.744 93.44-88.576 128-182.528 1.28-0.256 2.816-0.768 4.608-1.024-62.464 212.48-258.816 367.104-491.008 367.104-58.624 0-115.2-9.984-167.68-28.16 25.856 4.608 48.128 5.888 66.048 5.632zM1023.974 445.21c-4.352 10.496-8.448 20.736-13.056 31.232-3.584 7.936-7.424 15.616-11.52 23.808-35.328-39.424-84.992-69.632-94.976-75.52-4.608-67.584-27.136-130.048-58.88-189.184-0.512-1.28-1.28-2.304-1.792-3.584 6.912-14.848 34.56-75.776 33.28-120.064 10.496 4.096 20.736 7.936 30.976 11.776 0-0.256-0.256-0.512-0.512-0.768 72.192 87.808 115.968 199.936 116.48 322.56v-0.256z" />
<glyph unicode="&#xe938;" glyph-name="Tada" d="M943.14 255.695c-23.357 14.21-50.482 25.836-70.826 42.629-55.003 43.921-94.184 31.649-133.364-18.085-40.687-51.026-89.663-96.885-134.871-145.974-106.239-115.615-116.788-87.842 37.674-182.791 37.673-23.252 62.538-20.669 90.416 10.334 70.825 78.155 144.666 155.017 217 232.525 9.042 9.689 14.315 20.669 19.589 28.42-2.26 17.439-13.563 25.836-25.617 32.941zM732.913 466.945c9.794 42.629 24.109 83.966 48.974 122.721 39.18 33.587 88.909 66.528 29.386 116.262-36.167 30.357-94.183 17.439-143.159-30.358-33.151-32.295-64.045-66.528-80.62-107.865-22.604-60.069-64.8-48.442-111.513-22.607-50.482 32.941-104.732 60.715-161.243 83.967-56.51 31.003-113.020 62.007-169.53 92.364-42.948 23.252-76.854 12.272-105.486-20.669-33.906-39.4 0-60.715 30.892-80.092 34.66-21.315 73.086-39.4 110.006-58.777 39.934-23.898 90.416-45.213 18.083-87.843-12.056-7.104-18.837-29.711 0-44.566-30.139-37.462-74.593-71.696-42.948-124.659-48.222-54.255-33.906-81.386 68.566-124.659 65.552-39.4 132.612-73.634 210.971-91.72 34.659-8.397 58.771-2.583 81.375 22.607 62.537 69.758 126.581 138.224 190.626 207.334 52.745 43.921 14.318 99.469 26.372 148.558h-0.753zM571.704 752.986c7.535-1.292 21.097 3.229 24.111 8.397 21.851 42.629 41.441 86.551 58.771 122.721 3.767 19.377-1.507 28.42-14.316 31.003s-19.59 0-23.358-7.751c-20.344-43.275-40.687-87.197-59.524-131.118-4.521-10.98 2.26-21.315 15.069-23.252h-0.753zM298.165 762.071c5.274-10.334 18.083-13.564 30.139-7.751 12.809 5.813 14.316 15.502 9.795 26.482-17.33 38.754-34.66 76.862-51.989 115.616-4.521 10.334-12.056 20.023-25.618 19.377-15.069-0.646-24.111-10.334-20.344-20.023 18.083-44.567 37.673-89.134 58.017-133.056v-0.646zM452.647 787.256c7.535 1.292 18.837 9.043 18.837 14.856 3.014 46.505 4.521 93.656 5.274 132.41-3.767 19.377-12.809 27.128-25.618 25.19-7.535-1.292-18.837-9.043-18.837-14.856-2.26-46.505-3.014-93.656-3.014-140.161 0-11.626 10.549-19.377 23.358-17.439z" />
<glyph unicode="&#xe939;" glyph-name="tempo" d="M991.011 759.461c21.724-22.415 21.112-58.212-1.364-79.872-21.955-21.167-56.722-21.167-78.679 0l-79.872 79.872c-22.477 21.66-23.089 57.457-1.364 79.872 21.66 22.478 57.457 23.089 79.872 1.365l1.364-1.365q0 0.171 80.044-79.872zM39.204 759.461l79.872 79.872c21.66 22.478 57.457 23.089 79.872 1.365 22.393-21.696 23.004-57.423 1.365-79.872l-81.237-81.238c-21.675-22.528-57.515-23.040-79.872-1.365s-23.040 57.515-1.365 79.872c0.341 0.512 0.853 0.853 1.365 1.365zM508.195 31.056c-218.624 0-395.946 177.324-395.946 395.948s177.322 395.775 395.946 395.775 395.948-177.323 395.948-395.946c0-218.624-177.324-395.776-395.948-395.776zM564.856 483.493v113.152c0 31.233-25.257 56.662-56.66 56.662-31.232 0-56.66-25.259-56.66-56.662v-169.641c0-31.232 25.257-56.663 56.66-56.663h169.644c31.232 0 56.66 25.26 56.66 56.663 0 31.232-25.257 56.66-56.66 56.66h-112.983v-0.172z" />
<glyph unicode="&#xe93a;" glyph-name="top-arrow" d="M54.973 303.933l415.173 415.073c19.996 19.99 52.408 19.989 72.402-0.003l426.903-426.864c30.129-30.126 30.138-78.971 0.020-109.107-30.125-30.144-78.982-30.159-109.125-0.033l-336.493 336.309c-9.999 9.993-26.204 9.99-36.201-0.005l-324.029-324.031c-30.003-30.003-78.646-30.006-108.652-0.005-30.011 30.006-30.011 78.661 0.003 108.667z" />
<glyph unicode="&#xe93b;" glyph-name="Transaction" d="M901.668 960h-785.472c-21.755 0-39.414-17.66-39.414-39.414v-945.177c0-21.755 17.66-39.414 39.414-39.414h785.728c21.755 0 39.414 17.66 39.414 39.414v945.177c0 21.755-17.66 39.414-39.414 39.414h-0.256zM591.983 491.89c-4.095 4.863-11.005 9.726-20.987 14.077-9.982 4.607-24.57 9.47-43.765 14.844-26.106 7.678-47.348 15.356-64.24 22.778-16.636 7.422-31.48 19.195-44.533 35.319s-19.451 37.111-19.451 63.728c0 28.665 9.47 53.747 28.665 74.99s44.021 35.575 74.734 42.486l-3.583 52.723h91.114l-3.583-52.723c45.557-11.261 80.108-41.718 103.399-91.626l-76.525-37.111c-8.19 18.172-17.66 31.224-28.409 39.158-10.749 7.678-24.314 11.517-40.438 11.517-14.844 0-27.129-3.327-36.855-9.982s-14.333-14.844-14.333-25.082c0-8.19 1.536-14.588 4.863-19.451s9.47-9.47 18.683-13.821c9.214-4.351 23.546-9.214 42.742-14.588 26.362-7.166 48.116-14.333 65.52-21.499s33.016-18.939 46.581-35.063c13.565-16.124 20.475-37.367 20.475-64.24 0-30.457-9.47-56.306-28.665-77.293s-44.789-35.319-76.781-42.23l3.071-52.723h-91.114l3.071 52.723c-26.106 6.143-48.628 17.404-67.823 34.296-19.195 16.636-34.040 37.111-44.021 61.169l77.037 36.855c6.143-17.66 15.868-30.968 29.433-40.182s29.177-13.821 46.581-13.821c17.404 0 30.201 3.327 40.182 9.982s14.844 15.356 14.844 26.618c0 7.422-2.048 13.565-6.143 18.428l0.256-0.256zM762.95 88.021l-77.549-80.876c-2.048-2.048-4.607-3.071-7.422-3.071-3.071 0-5.887 1.28-7.678 3.583-2.048 2.303-2.815 5.119-2.559 8.19l5.119 39.926h-315.571c-13.821 0-24.826 11.261-24.826 24.826s11.261 24.826 24.826 24.826h398.239c4.095 0 7.934-2.559 9.47-6.398s0.768-8.19-2.048-11.261v0.256zM740.939 155.077h-396.447c-4.607 0-8.702 2.559-10.749 6.91-1.792 4.351-1.024 9.214 2.303 12.541l72.942 76.013c2.303 2.303 5.119 3.583 8.19 3.583 3.327 0 6.654-1.536 8.702-3.839 2.303-2.559 3.071-5.631 2.815-8.958l-4.607-36.343h316.339c13.821 0 24.826-11.261 24.826-24.826s-11.261-24.826-24.826-24.826l0.512-0.256z" />
<glyph unicode="&#xe93c;" glyph-name="VIP" d="M582.6 835.65c0-40.396-32.704-73.15-73.101-73.15-40.394 0-73.149 32.754-73.149 73.15s32.755 73.15 73.149 73.15c40.397 0 73.101-32.754 73.101-73.15zM48 545.201c-11.355 39.037 16.407 54.149 47.95 32.75q7.57-3.796 209.45-171.351 174.118 312.438 179.149 321.25c5.048 8.818 30.264 32.743 50.45 1.25q20.188-31.493 180.452-322.5 153.93 129.761 210.698 173.85c16.404 15.119 53.010 12.575 46.702-35.3q0-5.038-122.401-407.25-6.308-22.684-24-22.7h-632.1q-12.617 0-23.95 22.651c-11.355 22.676-111.045 368.31-122.4 407.35zM100.9 646.5c0-27.858-22.591-50.45-50.45-50.45s-50.45 22.592-50.45 50.45c0 27.859 22.591 50.45 50.45 50.45s50.45-22.591 50.45-50.45zM1024 646.5c0-27.858-22.592-50.45-50.45-50.45s-50.45 22.592-50.45 50.45c0 27.859 22.592 50.45 50.45 50.45s50.45-22.591 50.45-50.45zM170.75 1.851v36.449c0 11.144 9.056 20.15 20.2 20.15h638.101c11.144 0 20.15-9.006 20.15-20.15v-36.449c0-11.144-9.006-20.201-20.15-20.201h-638.101c-11.144 0-20.2 9.057-20.2 20.201z" />
<glyph unicode="&#xe93d;" glyph-name="Withdraw" d="M980.414 946.872h-945.493c-19.167 0-34.921-15.754-34.921-34.921v-335.557c0-19.43 15.754-34.921 34.921-34.921h155.438v44.898c-16.016 4.464-28.094 19.167-28.094 36.759v79.032c0 21.005 17.067 38.072 38.072 38.072h631.204c21.005 0 38.072-17.067 38.072-38.072v-79.032c0-17.592-11.815-32.295-28.094-36.759v-44.898h138.896c19.43 0 34.921 15.754 34.921 34.921v335.557c0 19.43-15.754 34.921-34.921 34.921zM786.117 702.425h-540.357c-21.005 0-38.072-17.067-38.072-38.072v-681.879c0-21.005 17.067-38.072 38.072-38.072h540.357c21.005 0 38.072 17.067 38.072 38.072v681.616c0 21.005-17.067 38.072-38.072 38.072v0.263zM622.277 203.028c-14.704-16.279-34.396-27.044-59.339-32.558l2.363-40.697h-70.367l2.363 40.697c-19.955 4.726-37.547 13.391-52.513 26.256s-26.256 28.619-34.133 46.999l59.339 28.619c4.726-13.653 12.341-23.893 22.581-30.983 10.503-7.089 22.318-10.765 35.971-10.765s23.368 2.626 30.983 7.614c7.614 4.989 11.553 11.815 11.553 20.48 0 5.776-1.575 10.503-4.726 14.178s-8.665 7.352-16.279 11.028c-7.614 3.413-18.905 7.352-33.871 11.553-19.955 6.039-36.496 11.815-49.362 17.592s-24.418 14.704-34.396 27.307c-9.977 12.341-14.966 28.619-14.966 49.099 0 22.055 7.352 41.485 22.055 57.764 14.704 16.542 33.871 27.307 57.764 32.821l-2.626 40.697h70.367l-2.626-40.697c35.184-8.665 61.703-32.295 79.819-70.63l-59.077-28.619c-6.302 14.178-13.653 24.156-21.793 30.195-8.402 6.039-18.642 8.927-31.245 8.927-11.553 0-21.005-2.626-28.357-7.614s-11.028-11.553-11.028-19.43c0-6.302 1.313-11.29 3.676-14.966s7.352-7.352 14.441-10.765c7.089-3.413 18.117-7.089 33.083-11.29 20.217-5.514 37.284-11.028 50.675-16.542s25.469-14.704 35.971-27.044c10.503-12.341 15.754-28.882 15.754-49.362 0-23.368-7.352-43.323-22.055-59.602v-0.263z" />
<glyph unicode="&#xe93e;" glyph-name="bar-home1" d="M453.664 934.275l-397.005-163.708q-4.663-1.923-8.835-4.707t-7.693-6.323-6.255-7.696-4.577-8.773q-1.842-4.614-2.722-9.51t-0.764-9.884 1.223-9.878 3.163-9.493l189.651-424.614 233.814 654.586zM503.77 899.609l-251.884-734.298q-0.816-2.378-1.395-4.826-0.579-2.45-0.915-4.941-0.336-2.493-0.427-5.007t0.066-5.025q0.156-2.509 0.558-4.992t1.045-4.915 1.522-4.79 1.984-4.618 2.427-4.401 2.846-4.142 3.238-3.843q1.713-1.843 3.599-3.507 1.886-1.667 3.925-3.139t4.214-2.737q2.174-1.267 4.462-2.312 2.288-1.047 4.667-1.864l394.767-135.567q4.769-1.638 9.769-2.314 4.997-0.676 10.030-0.364t9.91 1.6q4.874 1.288 9.403 3.505 4.531 2.214 8.54 5.268 4.009 3.057 7.345 6.835 3.336 3.781 5.873 8.138 2.534 4.357 4.17 9.126l251.884 734.299q0.817 2.379 1.395 4.827t0.914 4.941q0.338 2.493 0.428 5.007t-0.067 5.025-0.558 4.994-1.044 4.915-1.521 4.79-1.984 4.617-2.427 4.401-2.847 4.142q-1.523 2.001-3.238 3.843-1.713 1.842-3.599 3.507-1.884 1.665-3.924 3.138t-4.214 2.738-4.462 2.312q-2.286 1.046-4.667 1.863l-394.767 135.568q-4.769 1.638-9.766 2.314-5 0.676-10.033 0.364t-9.907-1.601q-4.877-1.288-9.405-3.504t-8.538-5.27q-4.012-3.056-7.347-6.835t-5.87-8.137-4.172-9.127zM537.162 567.445c38.323 20.785 85.284 6.162 104.891-32.658l3.197-6.331 6.523 2.78c39.992 17.047 85.322-2.045 101.248-42.644 7.647-19.497 7.35-41.446-0.824-61.020-7.176-17.188-19.945-31.388-36.106-40.146-2.171-1.178-4.39-2.248-6.653-3.213l-105.385-44.923c-18.68-7.962-39.951-0.192-49.111 17.94l-51.666 102.295c-1.11 2.196-2.117 4.447-3.018 6.743-14.887 37.932 1.1 81.759 36.905 101.176z" />
<glyph unicode="&#xe940;" glyph-name="Roulette" d="M124.416 476.928c6.4 85.248 40.96 162.816 94.464 223.232l-89.088 89.088c-75.008-84.224-123.136-192.768-129.792-312.32h124.416zM260.096 740.864c61.184 51.456 138.496 83.712 222.976 88.576v130.56c-119.552-6.656-228.096-54.784-312.32-129.792l89.344-89.344zM218.88 195.84c-53.76 60.672-88.064 137.984-94.464 223.232h-124.416c6.656-119.552 54.784-228.096 129.792-312.32l89.088 89.088zM540.928 960v-131.328c82.688-7.68 157.696-41.984 216.576-94.208l95.744 95.744c-84.224 75.008-193.024 123.136-312.32 129.792zM886.272 419.072c-6.144-81.92-38.144-156.928-88.32-216.32l96-96c75.264 84.224 123.136 192.768 129.792 312.32h-137.472zM797.952 693.248c50.176-59.648 82.176-134.4 88.32-216.32h137.472c-6.656 119.552-54.784 228.096-129.792 312.32l-96-96zM757.504 161.536c-59.136-52.224-133.888-86.528-216.576-94.208v-131.328c119.552 6.656 228.096 54.784 312.32 129.792l-95.744 95.744zM483.072 66.816c-84.48 4.864-162.048 37.12-222.976 88.576l-89.344-89.344c84.224-75.264 192.768-123.136 312.32-129.792v130.56zM505.344 772.864c-178.688 0-324.608-146.176-324.608-324.608s146.176-324.608 324.608-324.608 324.608 146.176 324.608 324.608-146.176 324.608-324.608 324.608zM690.432 310.272l-40.704-40.704-92.16 92.16h-91.392l-92.16-92.16-40.704 40.704 92.16 92.16v91.392l-92.16 92.16 40.704 40.704 92.16-92.16h91.392l92.16 92.16 40.704-40.704-92.16-92.16v-91.392l92.16-92.16zM485.376 474.624h52.992v-52.992h-52.992v52.992z" />
<glyph unicode="&#xe94a;" glyph-name="language" d="M0 448c0 282.77 229.23 512 512 512s512-229.23 512-512c0-282.77-229.23-512-512-512s-512 229.23-512 512zM589.814 433.093l17.498-46.001c2.335-5.665 5.084-12.25 8.251-19.748 3.333-7.334 6.418-12.833 9.249-16.502q4.252-5.248 10.501-8.248c4.168-2.168 9.167-3.251 14.999-3.251q15.002 0 25.5 10.501c7.168 7.165 10.749 14.999 10.749 23.498 0 8.166-3.748 21.251-11.249 39.25l-95.749 236.5q-6.751 17.751-11.251 28.25c-2.834 7.168-6.415 13.834-10.749 20.001-4.168 6.167-9.751 11.166-16.75 15-6.833 4-15.416 6-25.751 6-10.166 0-18.749-2-25.748-6-6.835-3.833-12.419-8.917-16.75-15.251q-6.252-9.5-12.001-24c-3.666-9.5-6.833-17.667-9.5-24.499l-93.75-238.001c-3.832-9.5-6.582-16.916-8.248-22.249-1.667-5.335-2.501-10.501-2.501-15.501q0-13 10.749-23.25c7.168-6.833 15.416-10.25 24.75-10.25q16.499 0 23.752 9.5c4.833 6.5 10.665 18.916 17.498 37.251l17.5 46.999h149.002zM514.563 640.095l55.25-151.25h-109.499l54.249 151.25zM307.187 256.005c0 21.21 17.193 38.4 38.4 38.4h332.8c21.207 0 38.4-17.19 38.4-38.4 0-21.207-17.193-38.4-38.4-38.4h-332.8c-21.207 0-38.4 17.193-38.4 38.4z" />
</font>
</defs>
</svg>
